[ create a new paste ] login | about

Link: http://codepad.org/QBq5LVEs    [ raw code | fork ]

Plain Text, pasted on Sep 17:
foobar2000 1.3.17 / Dynamic Range Meter 1.1.1
log date: 2018-09-17 16:05:08

--------------------------------------------------------------------------------
Analyzed: Atlanta Rhythm Section / Third Annual Pipe Dream
--------------------------------------------------------------------------------

DR         Peak         RMS     Duration Track
--------------------------------------------------------------------------------
DR14      -1.48 dB   -17.69 dB      3:28 01-Doraville
DR13      -1.46 dB   -17.83 dB      3:49 02-Jesus Hearted People
DR15      -0.62 dB   -18.77 dB      3:24 03-Close The Door
DR16      -1.12 dB   -18.55 dB      3:50 04-Blues In Maude's Flat
DR13      -1.78 dB   -17.17 dB      3:57 05-Join The Race (To Inner Space)
DR13      -2.03 dB   -17.32 dB      5:11 06-Angel (What In The World's Come Over Us)
DR12      -2.10 dB   -17.17 dB      2:32 07-Get Your Head Out Of Your Heart
DR12      -4.28 dB   -19.55 dB      2:01 08-The War Is Over
DR13      -0.23 dB   -15.08 dB      2:55 09-Help Yourself (You Gotta Help Yourself)
DR13      -1.73 dB   -16.85 dB      3:21 10-Who You Gonna Run To
--------------------------------------------------------------------------------

Number of tracks:  10
Official DR value: DR13

Samplerate:        96000 Hz
Channels:          2
Bits per sample:   24
Bitrate:           2809 kbps
Codec:             FLAC
================================================================================




Create a new paste based on this one


Comments: