[ create a new paste ] login | about

Link: http://codepad.org/QEBOx4dE    [ raw code | fork ]

Plain Text, pasted on Oct 31:
foobar2000 1.3.17 / Dynamic Range Meter 1.1.1
log date: 2018-10-31 08:27:53

--------------------------------------------------------------------------------
Analyzed: Charles Aznavour / LA BOHEME
--------------------------------------------------------------------------------

DR         Peak         RMS     Duration Track
--------------------------------------------------------------------------------
DR12      -5.20 dB   -21.36 dB      4:04 01-La boheme
DR12      -4.97 dB   -21.56 dB      2:35 02-Aime moi
DR12      -6.26 dB   -22.24 dB      2:35 03-Quelque chose ou quelqu'un
DR13      -6.82 dB   -22.89 dB      3:14 04-Ca vient sans qu'on y pense
DR12      -6.03 dB   -21.85 dB      2:41 05-Plus rien
DR13      -7.20 dB   -23.43 dB      2:13 06-Il viendra ce jour
DR11      -4.94 dB   -20.29 dB      3:23 07-Paris au mois d'Août
DR13      -3.85 dB   -21.33 dB      2:23 08-Sur le chemin du retour
DR12      -6.00 dB   -21.65 dB      2:16 09-Il fallait bien
DR13      -5.93 dB   -22.59 dB      3:09 10-Parce que tu crois
DR13      -5.73 dB   -22.46 dB      2:53 11-La route
DR12      -5.21 dB   -21.33 dB      2:11 12-Sarah
DR13      -3.82 dB   -23.22 dB      2:30 13-Je t'aime comme ca
DR13      -4.27 dB   -24.10 dB      3:40 14-Ay mourir pour toi
DR13      -4.16 dB   -23.53 dB      3:46 15-L'amour a fleur de coeur
DR13      -4.93 dB   -22.72 dB      2:10 16-C'est merveilleux l'amour
DR12      -3.39 dB   -22.04 dB      2:35 17-Jezebel
DR15      -4.36 dB   -24.02 dB      3:08 18-A propos de pommier
--------------------------------------------------------------------------------

Number of tracks:  18
Official DR value: DR13

Samplerate:        2822400 Hz / PCM Samplerate: 352800 Hz
Channels:          6
Bits per sample:   1
Bitrate:           16934 kbps
Codec:             DST64
================================================================================

--------------------------------------------------------------------------------
Analyzed: Charles Aznavour / LA BOHEME
--------------------------------------------------------------------------------

DR         Peak         RMS     Duration Track
--------------------------------------------------------------------------------
DR11      -4.71 dB   -18.67 dB      4:05 01-La boheme
DR12      -4.67 dB   -18.07 dB      2:35 02-Aime moi
DR11      -6.02 dB   -18.87 dB      2:35 03-Quelque chose ou quelqu'un
DR11      -4.80 dB   -18.76 dB      3:14 04-Ca vient sans qu'on y pense
DR11      -4.30 dB   -17.57 dB      2:42 05-Plus rien
DR11      -5.60 dB   -18.74 dB      2:14 06-Il viendra ce jour
DR10      -4.87 dB   -16.79 dB      3:24 07-Paris au mois d'Août
DR12      -3.66 dB   -17.91 dB      2:22 08-Sur le chemin du retour
DR11      -5.65 dB   -17.64 dB      2:17 09-Il fallait bien
DR13      -3.83 dB   -18.57 dB      3:09 10-Parce que tu crois
DR13      -4.31 dB   -18.79 dB      2:53 11-La route
DR11      -5.59 dB   -18.45 dB      2:11 12-Sarah
DR12      -4.37 dB   -19.38 dB      2:30 13-Je t'aime comme ca
DR13      -5.02 dB   -20.57 dB      3:40 14-Ay mourir pour toi
DR12      -5.03 dB   -20.05 dB      3:46 15-L'amour a fleur de coeur
DR12      -4.74 dB   -19.15 dB      2:09 16-C'est merveilleux l'amour
DR11      -5.40 dB   -18.83 dB      2:35 17-Jezebel
DR15      -4.26 dB   -20.08 dB      3:08 18-A propos de pommier
--------------------------------------------------------------------------------

Number of tracks:  18
Official DR value: DR12

Samplerate:        2822400 Hz / PCM Samplerate: 352800 Hz
Channels:          2
Bits per sample:   1
Bitrate:           5645 kbps
Codec:             DST64
================================================================================




Create a new paste based on this one


Comments: