[ create a new paste ] login | about

Link: http://codepad.org/QFKLAQYj    [ raw code | fork ]

Plain Text, pasted on Dec 28:
Exact Audio Copy V1.3 from 2. September 2016

EAC extraction logfile from 16. December 2018, 11:01

Kate Bush / 12" Mixes

Used drive  : PLEXTOR BD-R  PX-B950SA   Adapter: 1  ID: 1

Read mode               : Secure
Utilize accurate stream : Yes
Defeat audio cache      : Yes
Make use of C2 pointers : No

Read offset correction                      : 6
Overread into Lead-In and Lead-Out          : No
Fill up missing offset samples with silence : Yes
Delete leading and trailing silent blocks   : No
Null samples used in CRC calculations       : Yes
Used interface                              : Native Win32 interface for Win NT & 2000

Used output format : Internal WAV Routines
Sample format      : 44.100 Hz; 16 Bit; Stereo


TOC of the extracted CD

     Track |   Start  |  Length  | Start sector | End sector 
    ---------------------------------------------------------
        1  |  0:00.00 |  5:49.63 |         0    |    26237   
        2  |  5:49.63 |  7:46.00 |     26238    |    61187   
        3  | 13:35.63 |  6:33.00 |     61188    |    90662   
        4  | 20:08.63 |  3:49.00 |     90663    |   107837   
        5  | 23:57.63 |  6:45.13 |    107838    |   138225   


Range status and errors

Selected range

     Filename C:\Kate Bush\2018 Remastered Part II (11CD Box Set Fish People)\2018 The Other Sides\CD1 12’’ Mixes\Kate Bush - 12'' Mixes.wav

     Peak level 95.2 %
     Extraction speed 6.4 X
     Range quality 100.0 %
     Test CRC C911EEB9
     Copy CRC C911EEB9
     Copy OK

No errors occurred

 
AccurateRip summary
 
Track  1  not present in database
Track  2  not present in database
Track  3  not present in database
Track  4  not present in database
Track  5  not present in database
 
None of the tracks are present in the AccurateRip database

End of status report

---- CUETools DB Plugin V2.1.6

[CTDB TOCID: YbqTNP2kwidYCts3OcA2wXBNxQY-] found
Submit result: YbqTNP2kwidYCts3OcA2wXBNxQY- has been confirmed
Track | CTDB Status
  1   | (41/42) Accurately ripped
  2   | (42/42) Accurately ripped
  3   | (42/42) Accurately ripped
  4   | (42/42) Accurately ripped
  5   | (42/42) Accurately ripped


==== Log checksum CE668361D24F443E498A955129EBA4C8E330C55E1EC235A390D300B30D55924A ====


Exact Audio Copy V1.3 from 2. September 2016

EAC extraction logfile from 16. December 2018, 10:27

Kate Bush / The Other Side 1

Used drive  : PLEXTOR BD-R  PX-B950SA   Adapter: 1  ID: 1

Read mode               : Secure
Utilize accurate stream : Yes
Defeat audio cache      : Yes
Make use of C2 pointers : No

Read offset correction                      : 6
Overread into Lead-In and Lead-Out          : No
Fill up missing offset samples with silence : Yes
Delete leading and trailing silent blocks   : No
Null samples used in CRC calculations       : Yes
Used interface                              : Native Win32 interface for Win NT & 2000

Used output format : Internal WAV Routines
Sample format      : 44.100 Hz; 16 Bit; Stereo


TOC of the extracted CD

     Track |   Start  |  Length  | Start sector | End sector 
    ---------------------------------------------------------
        1  |  0:00.00 |  3:49.63 |         0    |    17237   
        2  |  3:49.63 |  4:21.00 |     17238    |    36812   
        3  |  8:10.63 |  3:02.45 |     36813    |    50507   
        4  | 11:13.33 |  3:18.60 |     50508    |    65417   
        5  | 14:32.18 |  2:10.30 |     65418    |    75197   
        6  | 16:42.48 |  4:49.60 |     75198    |    96932   
        7  | 21:32.33 |  2:34.30 |     96933    |   108512   
        8  | 24:06.63 |  3:02.45 |    108513    |   122207   
        9  | 27:09.33 |  4:12.00 |    122208    |   141107   
       10  | 31:21.33 |  5:36.13 |    141108    |   166320   


Range status and errors

Selected range

     Filename C:\Kate Bush\2018 Remastered Part II (11CD Box Set Fish People)\2018 The Other Sides\CD2 The Other Side 1\Kate Bush - The Other Side 1.wav

     Peak level 100.0 %
     Extraction speed 6.7 X
     Range quality 100.0 %
     Test CRC D0DFCE2F
     Copy CRC D0DFCE2F
     Copy OK

No errors occurred

 
AccurateRip summary
 
Track  1  not present in database
Track  2  not present in database
Track  3  not present in database
Track  4  not present in database
Track  5  not present in database
Track  6  not present in database
Track  7  not present in database
Track  8  not present in database
Track  9  not present in database
Track 10  not present in database
 
None of the tracks are present in the AccurateRip database

End of status report

---- CUETools DB Plugin V2.1.6

[CTDB TOCID: uO4l4yj7jA7VBDSdAGZs9nPYD8g-] found
Submit result: uO4l4yj7jA7VBDSdAGZs9nPYD8g- has been confirmed
Track | CTDB Status
  1   | (39/39) Accurately ripped
  2   | (39/39) Accurately ripped
  3   | (39/39) Accurately ripped
  4   | (39/39) Accurately ripped
  5   | (39/39) Accurately ripped
  6   | (39/39) Accurately ripped
  7   | (39/39) Accurately ripped
  8   | (39/39) Accurately ripped
  9   | (39/39) Accurately ripped
 10   | (39/39) Accurately ripped


==== Log checksum 16906AFA9761FBC746A1599299D61AA28AA4460C71EEC403C62A93C21C96FFCE ====


Exact Audio Copy V1.3 from 2. September 2016

EAC extraction logfile from 16. December 2018, 9:45

Kate Bush / The Other Side 2

Used drive  : PLEXTOR BD-R  PX-B950SA   Adapter: 1  ID: 1

Read mode               : Secure
Utilize accurate stream : Yes
Defeat audio cache      : Yes
Make use of C2 pointers : No

Read offset correction                      : 6
Overread into Lead-In and Lead-Out          : No
Fill up missing offset samples with silence : Yes
Delete leading and trailing silent blocks   : No
Null samples used in CRC calculations       : Yes
Used interface                              : Native Win32 interface for Win NT & 2000

Used output format : Internal WAV Routines
Sample format      : 44.100 Hz; 16 Bit; Stereo


TOC of the extracted CD

     Track |   Start  |  Length  | Start sector | End sector 
    ---------------------------------------------------------
        1  |  0:00.00 |  1:48.33 |         0    |     8132   
        2  |  1:48.33 |  1:04.00 |      8133    |    12932   
        3  |  2:52.33 |  4:28.30 |     12933    |    33062   
        4  |  7:20.63 |  2:44.45 |     33063    |    45407   
        5  | 10:05.33 |  4:18.30 |     45408    |    64787   
        6  | 14:23.63 |  2:04.00 |     64788    |    74087   
        7  | 16:27.63 |  3:16.00 |     74088    |    88787   
        8  | 19:43.63 |  2:47.00 |     88788    |   101312   
        9  | 22:30.63 |  4:52.00 |    101313    |   123212   
       10  | 27:22.63 |  5:05.13 |    123213    |   146100   


Range status and errors

Selected range

     Filename C:\Kate Bush\2018 Remastered Part II (11CD Box Set Fish People)\2018 The Other Sides\CD3 The Other Side 2\Kate Bush - The Other Side 2.wav

     Peak level 100.0 %
     Extraction speed 6.5 X
     Range quality 100.0 %
     Test CRC 63E8A01A
     Copy CRC 63E8A01A
     Copy OK

No errors occurred

 
AccurateRip summary
 
Track  1  not present in database
Track  2  not present in database
Track  3  not present in database
Track  4  not present in database
Track  5  not present in database
Track  6  not present in database
Track  7  not present in database
Track  8  not present in database
Track  9  not present in database
Track 10  not present in database
 
None of the tracks are present in the AccurateRip database

End of status report

---- CUETools DB Plugin V2.1.6

[CTDB TOCID: d971h4DZlzDQBAU5Q_tRvP84yf8-] found
Submit result: d971h4DZlzDQBAU5Q_tRvP84yf8- has been confirmed
Track | CTDB Status
  1   | (39/39) Accurately ripped
  2   | (39/39) Accurately ripped
  3   | (39/39) Accurately ripped
  4   | (39/39) Accurately ripped
  5   | (39/39) Accurately ripped
  6   | (39/39) Accurately ripped
  7   | (39/39) Accurately ripped
  8   | (39/39) Accurately ripped
  9   | (39/39) Accurately ripped
 10   | (39/39) Accurately ripped


==== Log checksum 25B527701CA6D7BDDFB1D74EFEE2980E517F209872A5ADDBECE1FF071C4968FD ====


Exact Audio Copy V1.3 from 2. September 2016

EAC extraction logfile from 16. December 2018, 9:04

Kate Bush / In Others' Words

Used drive  : PLEXTOR BD-R  PX-B950SA   Adapter: 1  ID: 1

Read mode               : Secure
Utilize accurate stream : Yes
Defeat audio cache      : Yes
Make use of C2 pointers : No

Read offset correction                      : 6
Overread into Lead-In and Lead-Out          : No
Fill up missing offset samples with silence : Yes
Delete leading and trailing silent blocks   : No
Null samples used in CRC calculations       : Yes
Used interface                              : Native Win32 interface for Win NT & 2000

Used output format : Internal WAV Routines
Sample format      : 44.100 Hz; 16 Bit; Stereo


TOC of the extracted CD

     Track |   Start  |  Length  | Start sector | End sector 
    ---------------------------------------------------------
        1  |  0:00.00 |  5:01.63 |         0    |    22637   
        2  |  5:01.63 |  5:55.00 |     22638    |    49262   
        3  | 10:56.63 |  2:57.45 |     49263    |    62582   
        4  | 13:54.33 |  2:30.51 |     62583    |    73883   
        5  | 16:25.09 |  3:18.54 |     73884    |    88787   
        6  | 19:43.63 |  2:15.30 |     88788    |    98942   
        7  | 21:59.18 |  3:14.45 |     98943    |   113537   
        8  | 25:13.63 |  2:42.15 |    113538    |   125702   
        9  | 27:56.03 |  4:32.40 |    125703    |   146142   


Range status and errors

Selected range

     Filename C:\Kate Bush\2018 Remastered Part II (11CD Box Set Fish People)\2018 The Other Sides\CD4 In Others’ Words\Kate Bush - In Others' Words.wav

     Peak level 92.9 %
     Extraction speed 6.5 X
     Range quality 100.0 %
     Test CRC 0848D569
     Copy CRC 0848D569
     Copy OK

No errors occurred

 
AccurateRip summary
 
Track  1  not present in database
Track  2  not present in database
Track  3  not present in database
Track  4  not present in database
Track  5  not present in database
Track  6  not present in database
Track  7  not present in database
Track  8  not present in database
Track  9  not present in database
 
None of the tracks are present in the AccurateRip database

End of status report

---- CUETools DB Plugin V2.1.6

[CTDB TOCID: YOlc1dx8I3LCpCXQZ5ndPwESEfE-] found
Submit result: YOlc1dx8I3LCpCXQZ5ndPwESEfE- has been confirmed
Track | CTDB Status
  1   | (37/38) Accurately ripped
  2   | (38/38) Accurately ripped
  3   | (38/38) Accurately ripped
  4   | (38/38) Accurately ripped
  5   | (38/38) Accurately ripped
  6   | (38/38) Accurately ripped
  7   | (38/38) Accurately ripped
  8   | (38/38) Accurately ripped
  9   | (38/38) Accurately ripped


==== Log checksum 128486ED36399F561D93305275F680D6756D6912AF0140C1E04C3726307EED45 ====



Create a new paste based on this one


Comments: