[ create a new paste ] login | about

Link: http://codepad.org/QGKaHi64    [ raw code | fork ]

Plain Text, pasted on Feb 15:
[CUETools log; Date: 8/19/2015 9:24:23 AM; Version: 2.1.5]
[CTDB TOCID: N9fm001DtWU.uuWteK2Q1avwZBw-] found.
Track | CTDB Status
  1   | (9/9) Accurately ripped
  2   | (9/9) Accurately ripped
  3   | (9/9) Accurately ripped
  4   | (9/9) Accurately ripped
  5   | (9/9) Accurately ripped
  6   | (9/9) Accurately ripped
  7   | (9/9) Accurately ripped
  8   | (9/9) Accurately ripped
  9   | (9/9) Accurately ripped
 10   | (9/9) Accurately ripped
 11   | (9/9) Accurately ripped
 12   | (9/9) Accurately ripped
[AccurateRip ID: 000e724d-0089702a-a1080a0c] found.
Track   [  CRC   |   V2   ] Status
 01     [8badf8ed|5edfc97b] (00+34/34) Accurately ripped
 02     [12bd8930|041b792e] (00+34/34) Accurately ripped
 03     [0b61cda0|f6d1d3f5] (00+34/34) Accurately ripped
 04     [f12c05f3|6601b7a8] (00+34/34) Accurately ripped
 05     [323bca47|952491ca] (00+34/34) Accurately ripped
 06     [7a04fd85|8036785f] (00+34/34) Accurately ripped
 07     [335748a9|615b3e61] (00+34/34) Accurately ripped
 08     [19fe9478|73352ed2] (00+34/34) Accurately ripped
 09     [ab96282b|72b467f6] (00+34/34) Accurately ripped
 10     [49db5cd6|f71d793b] (00+34/34) Accurately ripped
 11     [a360cd92|695d7c62] (00+34/34) Accurately ripped
 12     [2d5faef1|bcf6b2c5] (00+34/34) Accurately ripped

Track Peak [ CRC32  ] [W/O NULL] [  LOG   ]
 --   96.6 [1432145C] [81C63599]   CRC32   
 01   81.7 [CE3CF9B0] [A038EFD9]           
 02   68.3 [EA8EB91C] [195767B3]           
 03   59.2 [87D1048C] [2962DB54]           
 04   87.0 [C94F24ED] [29FEF418]           
 05   96.6 [52D1A671] [D393AD76]           
 06   74.7 [C37AE93E] [416CBA09]           
 07   91.6 [D924B645] [6C891D9A]           
 08   77.1 [8F1D5CB5] [BA91A654]           
 09   66.8 [5B11D78F] [B536AE4B]           
 10   90.4 [485A576D] [9CCF30E5]           
 11   81.2 [5896C6DB] [D7C9DA3C]           
 12   76.5 [A9023607] [712CF1C8]           



Create a new paste based on this one


Comments: