[ create a new paste ] login | about

Link: http://codepad.org/QGqMuQQR    [ raw code | fork ]

Plain Text, pasted on Apr 13:
foobar2000 1.3.17 / Dynamic Range Meter 1.1.1
log date: 2018-04-09 19:35:17

--------------------------------------------------------------------------------
Analyzed: Todd Rundgren / A Wizard, A True Star (2018 AS Hybrid SACD)
--------------------------------------------------------------------------------

DR         Peak         RMS     Duration Track
--------------------------------------------------------------------------------
DR10      -1.78 dB   -13.14 dB      2:51 01-International Feel
DR10      -2.19 dB   -15.20 dB      1:35 02-Never Never Land
DR10      -2.20 dB   -13.63 dB      1:14 03-Tic Tic Tic It Wears Off
DR9       -1.43 dB   -12.54 dB      1:02 04-You Need Your Head
DR9       -3.02 dB   -13.02 dB      1:09 05-Rock And Roll Pussy
DR10      -4.19 dB   -17.92 dB      1:05 06-Dogfight Giggle
DR10      -4.11 dB   -15.69 dB      1:03 07-You Don't Have To Camp Around
DR10      -3.19 dB   -14.64 dB      2:35 08-Flamingo
DR11      -2.72 dB   -15.37 dB      5:36 09-Zen Archer
DR10      -3.50 dB   -15.07 dB      2:24 10-Just Another Onionhead / Da da Dali
DR10      -3.10 dB   -15.60 dB      4:03 11-When The Shit Hits The Fan / Sunset Blvd.
DR10      -3.39 dB   -14.89 dB      1:52 12-Le Feel Internacionale
DR11      -2.04 dB   -15.13 dB      4:17 13-Sometimes I Don't Know What To Feel
DR12      -1.06 dB   -15.38 dB      1:31 14-Does Anybody Love You?
DR11      -1.17 dB   -14.69 dB     10:35 15-Medley
DR11      -0.99 dB   -14.71 dB      2:19 16-Hungry For Love
DR9       -4.05 dB   -15.05 dB      1:57 17-I Don't Want To Tie You Down
DR9       -2.65 dB   -13.81 dB      4:02 18-Is It My Name?
DR11      -1.54 dB   -14.60 dB      5:03 19-Just One Victory
--------------------------------------------------------------------------------

Number of tracks:  19
Official DR value: DR10

Samplerate:        88200 Hz
Channels:          2
Bits per sample:   24
Bitrate:           2724 kbps
Codec:             FLAC
================================================================================




Create a new paste based on this one


Comments: