[ create a new paste ] login | about

Link: http://codepad.org/QHRJgUPP    [ raw code | fork ]

Plain Text, pasted on Mar 19:
Exact Audio Copy V1.3 from 2. September 2016

EAC extraction logfile from 17. March 2019, 8:27

Paul McCartney And Wings / Wild Life CD1 Remastered Album

Used drive  : PLEXTOR BD-R  PX-B950SA   Adapter: 1  ID: 1

Read mode               : Secure
Utilize accurate stream : Yes
Defeat audio cache      : Yes
Make use of C2 pointers : No

Read offset correction                      : 6
Overread into Lead-In and Lead-Out          : No
Fill up missing offset samples with silence : Yes
Delete leading and trailing silent blocks   : No
Null samples used in CRC calculations       : Yes
Used interface                              : Native Win32 interface for Win NT & 2000

Used output format : Internal WAV Routines
Sample format      : 44.100 Hz; 16 Bit; Stereo


TOC of the extracted CD

     Track |   Start  |  Length  | Start sector | End sector 
    ---------------------------------------------------------
        1  |  0:00.00 |  3:58.21 |         0    |    17870   
        2  |  3:58.21 |  4:10.11 |     17871    |    36631   
        3  |  8:08.32 |  4:51.67 |     36632    |    58523   
        4  | 13:00.24 |  6:41.36 |     58524    |    88634   
        5  | 19:41.60 |  6:37.22 |     88635    |   118431   
        6  | 26:19.07 |  2:19.02 |    118432    |   128858   
        7  | 28:38.09 |  0:52.21 |    128859    |   132779   
        8  | 29:30.30 |  3:27.67 |    132780    |   148371   
        9  | 32:58.22 |  5:59.73 |    148372    |   175369   
       10  | 38:58.20 |  0:46.17 |    175370    |   178836   


Range status and errors

Selected range

     Filename C:\Paul McCartney\1971 Wild Life (4-Disc Box Set Universal Music 2018)\CD1 Remastered Album\Paul McCartney And Wings - Wild Life CD1 Remastered Album.wav

     Peak level 99.5 %
     Extraction speed 7.0 X
     Range quality 100.0 %
     Test CRC 3A642492
     Copy CRC 3A642492
     Copy OK

No errors occurred

 
AccurateRip summary
 
Track  1  accurately ripped (confidence 20)  [F39701DB]  (AR v2)
Track  2  accurately ripped (confidence 20)  [B2950F01]  (AR v2)
Track  3  accurately ripped (confidence 19)  [3AA0E728]  (AR v2)
Track  4  accurately ripped (confidence 20)  [18507459]  (AR v2)
Track  5  accurately ripped (confidence 20)  [3034DB06]  (AR v2)
Track  6  accurately ripped (confidence 20)  [8376ECB7]  (AR v2)
Track  7  accurately ripped (confidence 20)  [45ED98E4]  (AR v2)
Track  8  accurately ripped (confidence 20)  [E0FB0E78]  (AR v2)
Track  9  accurately ripped (confidence 20)  [2CF299B0]  (AR v2)
Track 10  accurately ripped (confidence 20)  [53550725]  (AR v2)
 
All tracks accurately ripped

End of status report

---- CUETools DB Plugin V2.1.6

[CTDB TOCID: FwAKh1D8qPv.VRoOcTGAN5OFZr8-] found
Submit result: FwAKh1D8qPv.VRoOcTGAN5OFZr8- has been confirmed
Track | CTDB Status
  1   | (135/135) Accurately ripped
  2   | (135/135) Accurately ripped
  3   | (135/135) Accurately ripped
  4   | (135/135) Accurately ripped
  5   | (135/135) Accurately ripped
  6   | (135/135) Accurately ripped
  7   | (135/135) Accurately ripped
  8   | (135/135) Accurately ripped
  9   | (135/135) Accurately ripped
 10   | (135/135) Accurately ripped


==== Log checksum 70A96EC81A8E22875A32F81018ECE02FA6AB36480AB6ABAF4E9B48D04EDBDDF2 ====



Create a new paste based on this one


Comments: