[ create a new paste ] login | about

Link: http://codepad.org/QQGJDm7y    [ raw code | fork ]

Plain Text, pasted on Dec 17:
Exact Audio Copy V1.0 beta 3 from 29. August 2011

EAC extraction logfile from 13. August 2013, 18:29

The Beatles with Tony Sheridan / Single Box CD2

Used drive  : PLEXTOR BD-R  PX-B950SA   Adapter: 6  ID: 0

Read mode               : Secure
Utilize accurate stream : Yes
Defeat audio cache      : Yes
Make use of C2 pointers : No

Read offset correction                      : 6
Overread into Lead-In and Lead-Out          : No
Fill up missing offset samples with silence : Yes
Delete leading and trailing silent blocks   : No
Null samples used in CRC calculations       : Yes
Used interface                              : Native Win32 interface for Win NT & 2000

Used output format : Internal WAV Routines
Sample format      : 44.100 Hz; 16 Bit; Stereo


TOC of the extracted CD

     Track |   Start  |  Length  | Start sector | End sector 
    ---------------------------------------------------------
        1  |  0:00.00 |  2:08.72 |         0    |     9671   
        2  |  2:08.72 |  3:58.69 |      9672    |    27590   
        3  |  6:07.66 |  2:08.70 |     27591    |    37260   
        4  |  8:16.61 |  2:08.59 |     37261    |    46919   
        5  | 10:25.45 |  3:01.44 |     46920    |    60538   
        6  | 13:27.14 |  2:33.32 |     60539    |    72045   
        7  | 16:00.46 |  2:14.26 |     72046    |    82121   
        8  | 18:14.72 |  6:10.19 |     82122    |   109890   
        9  | 24:25.16 |  2:08.03 |    109891    |   119493   
       10  | 26:33.19 |  3:58.00 |    119494    |   137343   
       11  | 30:31.19 |  2:09.02 |    137344    |   147020   
       12  | 32:40.21 |  2:33.64 |    147021    |   158559   
       13  | 35:14.10 |  2:10.72 |    158560    |   168381   


Range status and errors

Selected range

     Filename C:\The Beatles\2013 Single Box (9 SHM-CD Box Set Universal Music Japan)\CD2\The Beatles with Tony Sheridan - Single Box CD2.wav

     Peak level 100.0 %
     Extraction speed 6.6 X
     Range quality 100.0 %
     Test CRC 249085A1
     Copy CRC 249085A1
     Copy OK

No errors occurred

 
AccurateRip summary
 
Track  1  not present in database
Track  2  not present in database
Track  3  not present in database
Track  4  not present in database
Track  5  not present in database
Track  6  not present in database
Track  7  not present in database
Track  8  not present in database
Track  9  not present in database
Track 10  not present in database
Track 11  not present in database
Track 12  not present in database
Track 13  not present in database
 
None of the tracks are present in the AccurateRip database

End of status report

==== Log checksum EF2E96FE824713141B7B3F73E4727CCFCB2F2122302C777D0EA09BA27548356D ====



Create a new paste based on this one


Comments: