[ create a new paste ] login | about

Link: http://codepad.org/QR64SNhC    [ raw code | fork ]

Plain Text, pasted on Mar 9:
foobar2000 1.3.17 / Dynamic Range Meter 1.1.1
log date: 2018-03-08 18:51:54

--------------------------------------------------------------------------------
Analyzed: Lynyrd Skynyrd / Second Helping
--------------------------------------------------------------------------------

DR         Peak         RMS     Duration Track
--------------------------------------------------------------------------------
DR11      -6.25 dB   -19.47 dB      4:44 01-Sweet Home Alabama
DR11      -6.19 dB   -20.32 dB      6:55 02-I Need You
DR11      -7.73 dB   -19.86 dB      3:25 03-Don't Ask Me No Questions
DR11      -6.97 dB   -19.04 dB      4:49 04-Workin' For MCA
DR12      -5.36 dB   -20.96 dB      4:52 05-The Ballad Of Curtis Loew
DR11      -8.37 dB   -20.68 dB      3:31 06-Swamp Music
DR10      -8.59 dB   -19.99 dB      3:54 07-The Needle And The Spoon
DR11      -6.70 dB   -19.26 dB      5:11 08-Call Me The Breeze
--------------------------------------------------------------------------------

Number of tracks:  8
Official DR value: DR11

Samplerate:        2822400 Hz / PCM Samplerate: 176400 Hz
Channels:          2
Bits per sample:   1
Bitrate:           5645 kbps
Codec:             DSD64
================================================================================




Create a new paste based on this one


Comments: