[ create a new paste ] login | about

Link: http://codepad.org/QUW84mSI    [ raw code | fork ]

Plain Text, pasted on Aug 27:
foobar2000 1.4.6 / Dynamic Range Meter 1.1.1
log date: 2019-08-27 15:52:54

--------------------------------------------------------------------------------
Analyzed: George Benson / Songs and Stories
--------------------------------------------------------------------------------

DR         Peak         RMS     Duration Track
--------------------------------------------------------------------------------
DR13       0.00 dB   -16.75 dB      3:48 01-Don't Let Me Be Lonely Tonight
DR13       0.00 dB   -15.86 dB      4:20 02-Family Reunion
DR12       0.00 dB   -15.91 dB      4:17 03-Show Me the Love
DR13       0.00 dB   -17.38 dB      5:56 04-A Telephone Call Away
DR15       0.00 dB   -18.36 dB      6:22 05-Someday We'll All Be Free
DR13       0.00 dB   -14.77 dB      5:30 06-Nuthin' But a Party
DR13       0.00 dB   -16.55 dB      5:14 07-Come in from the Cold
DR15       0.00 dB   -17.35 dB      4:52 08-Exotica
DR12       0.00 dB   -15.06 dB      4:44 09-Rainy Night in Georgia
DR13       0.00 dB   -15.60 dB      7:13 10-One Like You
DR14      -0.10 dB   -19.12 dB      5:21 11-Living in High Definition
DR12      -0.61 dB   -16.42 dB      4:09 12-Sailing
--------------------------------------------------------------------------------

Number of tracks:  12
Official DR value: DR13

Samplerate:        96000 Hz
Channels:          6
Bits per sample:   24
Bitrate:           7566 kbps
Codec:             FLAC
================================================================================




Create a new paste based on this one


Comments: