[ create a new paste ] login | about

Link: http://codepad.org/QVNlsYcP    [ raw code | fork ]

Plain Text, pasted on Jul 9:
Exact Audio Copy V1.0 beta 3 from 29. August 2011

EAC extraction logfile from 31. October 2015, 18:15

Jesse Green / Nice And Slow [Bonus Tracks]

Used drive  : GENERIC CDRCB05   Adapter: 4  ID: 0

Read mode               : Secure
Utilize accurate stream : Yes
Defeat audio cache      : Yes
Make use of C2 pointers : No

Read offset correction                      : 102
Overread into Lead-In and Lead-Out          : No
Fill up missing offset samples with silence : Yes
Delete leading and trailing silent blocks   : No
Null samples used in CRC calculations       : Yes
Used interface                              : Native Win32 interface for Win NT & 2000
Gap handling                                : Appended to previous track

Used output format              : User Defined Encoder
Selected bitrate                : 1024 kBit/s
Quality                         : High
Add ID3 tag                     : No
Command line compressor         : C:\Program Files\FLAC\flac.exe
Additional command line options : -8 -V -T "ARTIST=%artist%" -T "TITLE=%title%" -T "ALBUM=%albumtitle%" -T "DATE=%year%" -T "TRACKNUMBER=%tracknr%" -T "GENRE=%genre%" -T "PERFORMER=%albuminterpret%" -T "COMPOSER=%composer%" %haslyrics%--tag-from-file=LYRICS="%lyricsfile%"%haslyrics% -T "ALBUMARTIST=%albumartist%" -T "DISCNUMBER=%cdnumber%" -T "TOTALDISCS=%totalcds%" -T "TOTALTRACKS=%numtracks%" -T "COMMENT=%comment%" %source% -o %dest% 


TOC of the extracted CD

     Track |   Start  |  Length  | Start sector | End sector 
    ---------------------------------------------------------
        1  |  0:00.00 |  3:04.18 |         0    |    13817   
        2  |  3:04.18 |  3:27.51 |     13818    |    29393   
        3  |  6:31.69 |  3:10.06 |     29394    |    43649   
        4  |  9:42.00 |  3:14.44 |     43650    |    58243   
        5  | 12:56.44 |  3:43.59 |     58244    |    75027   
        6  | 16:40.28 |  3:12.68 |     75028    |    89495   
        7  | 19:53.21 |  2:57.70 |     89496    |   102840   
        8  | 22:51.16 |  3:30.50 |    102841    |   118640   
        9  | 26:21.66 |  3:20.39 |    118641    |   133679   
       10  | 29:42.30 |  3:38.56 |    133680    |   150085   
       11  | 33:21.11 |  3:43.31 |    150086    |   166841   
       12  | 37:04.42 |  4:43.41 |    166842    |   188107   
       13  | 41:48.08 |  3:00.60 |    188108    |   201667   
       14  | 44:48.68 |  3:02.57 |    201668    |   215374   
       15  | 47:51.50 |  4:09.64 |    215375    |   234113   
       16  | 52:01.39 |  5:49.68 |    234114    |   260356   
       17  | 57:51.32 |  4:36.37 |    260357    |   281093   


Track  1

     Filename G:\POSTS\Jesse Green ‎- Nice And Slow (1976) [2014 BBR]\01 - Nice And Slow.wav

     Pre-gap length  0:00:02.00

     Peak level 96.5 %
     Extraction speed 1.2 X
     Track quality 99.9 %
     Test CRC 02DB5E9C
     Copy CRC 02DB5E9C
     Accurately ripped (confidence 4)  [2F9CB1DB]  (AR v2)
     Copy OK

Track  2

     Filename G:\POSTS\Jesse Green ‎- Nice And Slow (1976) [2014 BBR]\02 - You Came, You Saw, You Conquered.wav

     Pre-gap length  0:00:02.11

     Peak level 96.5 %
     Extraction speed 1.5 X
     Track quality 100.0 %
     Test CRC F74D602D
     Copy CRC F74D602D
     Accurately ripped (confidence 4)  [983DE18D]  (AR v2)
     Copy OK

Track  3

     Filename G:\POSTS\Jesse Green ‎- Nice And Slow (1976) [2014 BBR]\03 - The Greatest Love.wav

     Pre-gap length  0:00:01.37

     Peak level 96.5 %
     Extraction speed 1.6 X
     Track quality 100.0 %
     Test CRC A1C8EFB4
     Copy CRC A1C8EFB4
     Accurately ripped (confidence 4)  [B7E70B9C]  (AR v2)
     Copy OK

Track  4

     Filename G:\POSTS\Jesse Green ‎- Nice And Slow (1976) [2014 BBR]\04 - Don't Knock My Love.wav

     Pre-gap length  0:00:01.36

     Peak level 96.5 %
     Extraction speed 1.7 X
     Track quality 100.0 %
     Test CRC F7203B96
     Copy CRC F7203B96
     Accurately ripped (confidence 4)  [A30CD704]  (AR v2)
     Copy OK

Track  5

     Filename G:\POSTS\Jesse Green ‎- Nice And Slow (1976) [2014 BBR]\05 - You're A Miracle.wav

     Pre-gap length  0:00:01.16

     Peak level 96.5 %
     Extraction speed 1.6 X
     Track quality 99.9 %
     Test CRC 1FA51E9A
     Copy CRC 1FA51E9A
     Accurately ripped (confidence 4)  [52DA35EF]  (AR v2)
     Copy OK

Track  6

     Filename G:\POSTS\Jesse Green ‎- Nice And Slow (1976) [2014 BBR]\06 - High Waves Of The Sea.wav

     Pre-gap length  0:00:01.50

     Peak level 96.5 %
     Extraction speed 1.7 X
     Track quality 99.9 %
     Test CRC 717C5D85
     Copy CRC 717C5D85
     Accurately ripped (confidence 4)  [1C10F73D]  (AR v2)
     Copy OK

Track  7

     Filename G:\POSTS\Jesse Green ‎- Nice And Slow (1976) [2014 BBR]\07 - Flip.wav

     Pre-gap length  0:00:01.59

     Peak level 96.5 %
     Extraction speed 1.7 X
     Track quality 99.9 %
     Test CRC 7018CE18
     Copy CRC 7018CE18
     Accurately ripped (confidence 4)  [7CBB6097]  (AR v2)
     Copy OK

Track  8

     Filename G:\POSTS\Jesse Green ‎- Nice And Slow (1976) [2014 BBR]\08 - You Are The Star.wav

     Pre-gap length  0:00:00.74

     Peak level 96.5 %
     Extraction speed 2.1 X
     Track quality 100.0 %
     Test CRC F21539C8
     Copy CRC F21539C8
     Accurately ripped (confidence 4)  [44155D6F]  (AR v2)
     Copy OK

Track  9

     Filename G:\POSTS\Jesse Green ‎- Nice And Slow (1976) [2014 BBR]\09 - Let's Get It On.wav

     Pre-gap length  0:00:00.45

     Peak level 96.5 %
     Extraction speed 1.9 X
     Track quality 99.9 %
     Test CRC 6C198925
     Copy CRC 6C198925
     Accurately ripped (confidence 4)  [32FDF710]  (AR v2)
     Copy OK

Track 10

     Filename G:\POSTS\Jesse Green ‎- Nice And Slow (1976) [2014 BBR]\10 - Easy.wav

     Pre-gap length  0:00:01.00

     Peak level 96.5 %
     Extraction speed 2.3 X
     Track quality 100.0 %
     Test CRC F079CD83
     Copy CRC F079CD83
     Accurately ripped (confidence 4)  [5F6434A6]  (AR v2)
     Copy OK

Track 11

     Filename G:\POSTS\Jesse Green ‎- Nice And Slow (1976) [2014 BBR]\11 - Don't Let Me Down.wav

     Pre-gap length  0:00:01.62

     Peak level 96.5 %
     Extraction speed 2.1 X
     Track quality 99.9 %
     Test CRC 8C096857
     Copy CRC 8C096857
     Accurately ripped (confidence 4)  [48BCB0D4]  (AR v2)
     Copy OK

Track 12

     Filename G:\POSTS\Jesse Green ‎- Nice And Slow (1976) [2014 BBR]\12 - Nice And Slow (Instrumental).wav

     Pre-gap length  0:00:01.27

     Peak level 96.5 %
     Extraction speed 2.3 X
     Track quality 99.9 %
     Test CRC 2881B819
     Copy CRC 2881B819
     Accurately ripped (confidence 4)  [577E016B]  (AR v2)
     Copy OK

Track 13

     Filename G:\POSTS\Jesse Green ‎- Nice And Slow (1976) [2014 BBR]\13 - Flip (Alternative Version).wav

     Pre-gap length  0:00:03.34

     Peak level 96.5 %
     Extraction speed 2.5 X
     Track quality 100.0 %
     Test CRC 93796D69
     Copy CRC 93796D69
     Accurately ripped (confidence 4)  [E84055BA]  (AR v2)
     Copy OK

Track 14

     Filename G:\POSTS\Jesse Green ‎- Nice And Slow (1976) [2014 BBR]\14 - Don't Knock My Love (Alternative Version).wav

     Pre-gap length  0:00:02.11

     Peak level 96.5 %
     Extraction speed 2.6 X
     Track quality 100.0 %
     Test CRC 1CB6F540
     Copy CRC 1CB6F540
     Accurately ripped (confidence 4)  [E60595B5]  (AR v2)
     Copy OK

Track 15

     Filename G:\POSTS\Jesse Green ‎- Nice And Slow (1976) [2014 BBR]\15 - Don't Let Me Down (Alternative Version).wav

     Pre-gap length  0:00:01.34

     Peak level 96.5 %
     Extraction speed 2.8 X
     Track quality 100.0 %
     Test CRC CC2B91D1
     Copy CRC CC2B91D1
     Accurately ripped (confidence 4)  [D20B2F1D]  (AR v2)
     Copy OK

Track 16

     Filename G:\POSTS\Jesse Green ‎- Nice And Slow (1976) [2014 BBR]\16 - Nice And Slow (12'' Disco Version).wav

     Pre-gap length  0:00:01.33

     Peak level 96.5 %
     Extraction speed 2.7 X
     Track quality 99.9 %
     Test CRC 0AD13585
     Copy CRC 0AD13585
     Accurately ripped (confidence 4)  [2B93FDF1]  (AR v2)
     Copy OK

Track 17

     Filename G:\POSTS\Jesse Green ‎- Nice And Slow (1976) [2014 BBR]\17 - Flip (12'' Disco Version).wav

     Pre-gap length  0:00:01.13

     Peak level 96.5 %
     Extraction speed 3.0 X
     Track quality 100.0 %
     Test CRC BFEA3163
     Copy CRC BFEA3163
     Accurately ripped (confidence 4)  [2F6D632E]  (AR v2)
     Copy OK


All tracks accurately ripped

No errors occurred

End of status report

==== Log checksum 6BD96A8C45ED4A77A68BA08C3BD0151D121727F786804004250432B8039930FA ====



Create a new paste based on this one


Comments: