[ create a new paste ] login | about

Link: http://codepad.org/QaQSmYrz    [ raw code | fork ]

Plain Text, pasted on Aug 21:
foobar2000 1.3.17 / Dynamic Range Meter 1.1.1
log date: 2018-08-21 09:59:24

--------------------------------------------------------------------------------
Analyzed: R.E.M. / Unplugged 1991-2001: The Complete Sessions
--------------------------------------------------------------------------------

DR         Peak         RMS     Duration Track
--------------------------------------------------------------------------------
DR8        0.00 dB    -9.79 dB      3:59 01-Half A World Away
DR8       -0.10 dB   -10.36 dB      3:47 02-Disturbance At The Heron House
DR9        0.00 dB   -10.23 dB      4:19 03-Radio Song
DR9       -0.10 dB   -12.83 dB      5:10 04-Low
DR9       -0.10 dB   -11.03 dB      4:14 05-Perfect Circle
DR7       -0.10 dB    -9.21 dB      3:22 06-Fall On Me
DR7        0.00 dB    -9.77 dB      4:31 07-Belong
DR8       -0.10 dB   -10.45 dB      3:22 08-Love is All Around
DR8        0.00 dB    -9.27 dB      4:36 09-It's The End Of The World As We Know It (And I Feel Fine)
DR9       -0.05 dB   -10.49 dB      4:54 10-Losing My Religion
DR9        0.00 dB   -10.34 dB      3:29 11-Pop Song 89
DR10       0.00 dB   -11.76 dB      3:42 12-Endgame
DR10       0.00 dB   -12.31 dB      5:34 13-Fretless
DR9       -0.05 dB   -11.14 dB      3:01 14-Swan Swan H
DR13      -0.78 dB   -17.13 dB      1:49 15-Rotary 11
DR9       -0.10 dB   -10.50 dB      2:54 16-Get Up
DR9        0.00 dB   -11.99 dB      4:57 17-World Leader Pretend
DR8       -0.10 dB    -9.26 dB      4:28 18-All The Way To Reno
DR8       -0.10 dB    -9.29 dB      4:06 19-Electrolite
DR8       -0.10 dB    -9.65 dB      3:25 20-At My Most Beautiful
DR7        0.00 dB    -9.42 dB      3:12 21-Daysleeper
DR10      -0.10 dB   -11.91 dB      4:06 22-So. Central Rain
DR9        0.00 dB   -11.19 dB      4:43 23-Losing My Religion (2)
DR9        0.00 dB   -10.43 dB      5:26 24-Country Feedback
DR8        0.00 dB    -9.00 dB      4:30 25-Cuyahoga
DR8        0.00 dB    -9.82 dB      4:12 26-Imitation Of Life
DR7        0.00 dB    -9.62 dB      4:00 27-Find The River
DR8       -0.10 dB   -10.14 dB      3:33 28-The One I Love
DR6        0.00 dB    -8.33 dB      4:01 29-Disappear
DR8       -0.10 dB    -9.39 dB      4:27 30-Beat A Drum
DR9        0.00 dB   -11.29 dB      3:20 31-I've Been High
DR7        0.00 dB    -9.64 dB      5:37 32-I'll Take The Rain
DR7       -0.10 dB    -9.13 dB      4:30 33-Sad Professor
--------------------------------------------------------------------------------

Number of tracks:  33
Official DR value: DR8

Samplerate:        44100 Hz
Channels:          2
Bits per sample:   24
Bitrate:           1565 kbps
Codec:             FLAC
================================================================================




Create a new paste based on this one


Comments: