[ create a new paste ] login | about

Link: http://codepad.org/QbX8P3Tw    [ raw code | fork ]

Plain Text, pasted on Jul 21:
CD|
->
[CUETools log; Date: 7/2/2016 6:22:31 AM; Version: 2.1.5]
[CTDB TOCID: DYVWhmTt9W_wmTwwlYi4BRAWxxc-] found.
Track | CTDB Status
  1   | (70/70) Accurately ripped
  2   | (70/70) Accurately ripped
  3   | (70/70) Accurately ripped
  4   | (70/70) Accurately ripped
  5   | (70/70) Accurately ripped
  6   | (70/70) Accurately ripped
  7   | (69/70) Accurately ripped
  8   | (70/70) Accurately ripped
  9   | (70/70) Accurately ripped
 10   | (70/70) Accurately ripped
 11   | (69/70) Accurately ripped
[AccurateRip ID: 0011d890-00983a82-a10a410b] found.
Track   [  CRC   |   V2   ] Status
 01     [ff170c53|d1e2a1f1] (00+14/14) Accurately ripped
 02     [0e564567|7cc8a828] (00+14/14) Accurately ripped
 03     [9c9fa99b|df78cced] (00+14/14) Accurately ripped
 04     [41f46b30|be3e9b1d] (00+14/14) Accurately ripped
 05     [47ee8b68|bd985289] (00+14/14) Accurately ripped
 06     [991e567a|c6549292] (00+14/14) Accurately ripped
 07     [7f5e1b52|52f23b4b] (00+14/14) Accurately ripped
 08     [bddce162|32b67feb] (00+14/14) Accurately ripped
 09     [1640f240|0efc70b9] (00+14/14) Accurately ripped
 10     [3c8c4bfe|85e018af] (00+14/14) Accurately ripped
 11     [4b44634d|daf23b35] (00+14/14) Accurately ripped

Track Peak [ CRC32  ] [W/O NULL] [  LOG   ]
 --  100.0 [EE9DEDE0] [5A1A12AF]   CRC32   
 01   98.9 [6AB12204] [DD39BAC0]           
 02   98.9 [D5D5FDCD] [08A246A3]           
 03   58.5 [68F10BF0] [DDE0C0D7]           
 04   98.2 [85362C53] [AF21BD88]           
 05   84.1 [ECFAC7DA] [B185495E]           
 06   89.1 [8D2AA73F] [D9953B33]           
 07  100.0 [4889CDC5] [BB7844F7]           
 08   98.4 [7FC9D4AE] [17281320]           
 09   69.9 [DEE860A9] [9E3A1379]           
 10   99.3 [1225256C] [CB7D7786]           
 11   98.7 [77069444] [4FEC4C80]           
->
*********************************************************************************************************************************************************
*********************************************************************************************************************************************************
->
CD2
->
[CUETools log; Date: 7/2/2016 6:27:26 AM; Version: 2.1.5]
[CTDB TOCID: G2xLXYH3gBIOdMCsTpjUTY5SQwY-] found.
Track | CTDB Status
  1   | (60/60) Accurately ripped
  2   | (60/60) Accurately ripped
  3   | (60/60) Accurately ripped
  4   | (60/60) Accurately ripped
  5   | (60/60) Accurately ripped
  6   | (60/60) Accurately ripped
  7   | (60/60) Accurately ripped
  8   | (60/60) Accurately ripped
  9   | (60/60) Accurately ripped
 10   | (60/60) Accurately ripped
 11   | (60/60) Accurately ripped
 12   | (60/60) Accurately ripped
 13   | (60/60) Accurately ripped
 14   | (60/60) Accurately ripped
 15   | (60/60) Accurately ripped
 16   | (60/60) Accurately ripped
[AccurateRip ID: 00218960-018cdced-c70c0d10] found.
Track   [  CRC   |   V2   ] Status
 01     [95b0c988|111623ec] (00+14/14) Accurately ripped
 02     [b6747873|6bb3a397] (00+14/14) Accurately ripped
 03     [09a6aa22|a734c15e] (00+14/14) Accurately ripped
 04     [94b7e558|2cedf407] (00+14/14) Accurately ripped
 05     [f7e8ea90|297bcf8d] (00+14/14) Accurately ripped
 06     [ec6a337a|8356ffc6] (00+14/14) Accurately ripped
 07     [48165562|7a9004bf] (00+14/14) Accurately ripped
 08     [cc618085|7708894f] (00+14/14) Accurately ripped
 09     [9ef3dcbb|dae2e2a6] (00+14/14) Accurately ripped
 10     [4c9182ed|906281fd] (00+14/14) Accurately ripped
 11     [f96881a2|d73a2ae2] (00+14/14) Accurately ripped
 12     [ae76217d|c33d121c] (00+14/14) Accurately ripped
 13     [59400d1e|dd7b257c] (00+14/14) Accurately ripped
 14     [99fa5512|11820250] (00+14/14) Accurately ripped
 15     [ec8a4941|c782cd6e] (00+14/14) Accurately ripped
 16     [898678b0|78062898] (00+14/14) Accurately ripped

Track Peak [ CRC32  ] [W/O NULL] [  LOG   ]
 --   99.1 [618EBB95] [EE737A55]   CRC32   
 01   99.1 [B57D9547] [094D03DC]           
 02   51.6 [AEEE19DC] [58F4B57C]           
 03   98.9 [05974B37] [23F93091]           
 04   68.5 [708531A2] [5E8BE7E8]           
 05   99.0 [B04C8AB8] [4DFD3409]           
 06   69.9 [5AEF471A] [0108551E]           
 07   62.3 [819B44FE] [D9E51058]           
 08   98.7 [182F76EC] [C12083EC]           
 09   98.5 [568FE55D] [91F7C475]           
 10   99.0 [53D3317F] [01227EB3]           
 11   76.5 [4DC7A675] [3117A2F7]           
 12   78.7 [BEE2AC31] [C7D7170A]           
 13   83.9 [12D95CDD] [3C35772F]           
 14   75.9 [AC79711F] [6042B6BC]           
 15   57.6 [059F680D] [C57C2B57]           
 16   59.8 [4E7F2DE1] [3774D349]           



Create a new paste based on this one


Comments: