[ create a new paste ] login | about

Link: http://codepad.org/Qd8kaZMB    [ raw code | fork ]

Plain Text, pasted on Jul 6:
foobar2000 1.1.8 / Dynamic Range Meter 1.1.1
log date: 2012-01-03 21:50:46

--------------------------------------------------------------------------------
Analyzed: Stevie Wonder / Fulfillingness' First Finale (2011 SHM-SACD)
--------------------------------------------------------------------------------

DR         Peak         RMS     Duration Track
--------------------------------------------------------------------------------
DR11      -0.30 dB   -12.44 dB      3:29 01-Smile Please
DR11      -0.29 dB   -13.06 dB      5:03 02-Heaven Is 10 Zillion Light Years Away
DR11      -2.30 dB   -16.88 dB      3:28 03-Too Shy To Say
DR11      -0.21 dB   -12.51 dB      4:57 04-Boogie On Reggae Woman
DR11      -0.01 dB   -13.19 dB      4:23 05-Creepin'
DR12      -0.27 dB   -13.40 dB      3:23 06-You Haven't Done Nothin'
DR10      -0.31 dB   -12.84 dB      4:01 07-It Ain't No Use
DR11      -0.41 dB   -15.93 dB      5:59 08-They Won't Go When I Go
DR11      -0.30 dB   -13.05 dB      3:48 09-Bird Of Beauty
DR11      -0.30 dB   -13.47 dB      4:09 10-Please Don't Go
--------------------------------------------------------------------------------

Number of tracks:  10
Official DR value: DR11

Samplerate:        88200 Hz
Channels:          2
Bits per sample:   24
Bitrate:           2873 kbps
Codec:             FLAC
================================================================================




Create a new paste based on this one


Comments: