[ create a new paste ] login | about

Link: http://codepad.org/QdnEOoOm    [ raw code | fork ]

Plain Text, pasted on Feb 6:
foobar2000 1.5 / Dynamic Range Meter 1.1.1
log date: 2020-02-06 23:49:05

--------------------------------------------------------------------------------
Analyzed: Nat King Cole / ?
--------------------------------------------------------------------------------

DR         Peak         RMS     Duration Track
--------------------------------------------------------------------------------
DR10      -8.89 dB   -22.42 dB      3:27 01-Unforgettable
DR12      -6.97 dB   -21.52 dB      3:25 02-Mona Lisa
DR11      -8.09 dB   -22.98 dB      2:51 03-Nature Boy
DR11      -8.55 dB   -23.31 dB      2:52 04-Smile
DR13      -9.87 dB   -24.96 dB      4:34 05-Sweet Lorraine
DR15      -8.30 dB   -26.39 dB      3:00 06-For Sentimental Reasons
DR13      -9.23 dB   -25.18 dB      2:55 07-Tenderly
DR13      -6.09 dB   -22.69 dB      3:03 08-Blue Gardenia
DR12      -9.14 dB   -24.80 dB      2:40 09-A Blossom Fell
DR13      -8.80 dB   -25.84 dB      2:40 10-Walkin' My Baby Back Home
DR14      -7.80 dB   -25.04 dB      3:39 11-Route 66
DR13      -8.05 dB   -23.72 dB      3:05 12-It's Only A Papermoon
DR14      -6.65 dB   -23.37 dB      2:35 13-Straighten Up And Fly Right
DR11      -9.33 dB   -22.98 dB      3:22 14-Too Young
DR13      -6.26 dB   -22.27 dB      3:14 15-For All We Know
DR10     -10.46 dB   -23.29 dB      2:54 16-Answer Me My Love
DR11      -7.03 dB   -20.67 dB      2:52 17-Darling Je Vous Aime Beaucoup
--------------------------------------------------------------------------------

Number of tracks:  17
Official DR value: DR12

Samplerate:        2822400 Hz / PCM Samplerate: 44100 Hz
Channels:          2
Bits per sample:   1
Bitrate:           5645 kbps
Codec:             DST64
================================================================================




Create a new paste based on this one


Comments: