[ create a new paste ] login | about

Link: http://codepad.org/Qe6e5Y9x    [ raw code | fork ]

Plain Text, pasted on Jul 15:
foobar2000 1.3.17 / Dynamic Range Meter 1.1.1
log date: 2018-07-14 20:29:48

--------------------------------------------------------------------------------
Analyzed: Groove Armada / Goodbye Country (Hello Nightclub)
--------------------------------------------------------------------------------

DR         Peak         RMS     Duration Track
--------------------------------------------------------------------------------
DR14      -5.91 dB   -23.66 dB      6:32 01-Suntoucher
DR14      -4.44 dB   -21.72 dB      6:01 02-Superstylin'
DR14      -6.10 dB   -25.31 dB      4:55 03-Drifted
DR16      -6.19 dB   -26.50 dB      5:28 04-Little by Little
DR15      -5.58 dB   -24.69 dB      6:55 05-Fogma
DR15      -6.21 dB   -24.64 dB      4:59 06-My Friend
DR14      -5.93 dB   -25.03 dB      6:33 07-Lazy Moon
DR14      -5.55 dB   -22.09 dB      5:32 08-Raisin' The Stakes
DR14      -5.84 dB   -25.05 dB      5:51 09-Healing
DR17      -5.38 dB   -25.16 dB      6:53 10-Edge Hill
DR12      -6.67 dB   -21.22 dB      4:40 11-Tuning In - Dub Mix
DR14      -7.25 dB   -26.64 dB      4:46 12-Join Hands
--------------------------------------------------------------------------------

Number of tracks:  12
Official DR value: DR14

Samplerate:        2822400 Hz / PCM Samplerate: 176400 Hz
Channels:          6
Bits per sample:   1
Bitrate:           16934 kbps
Codec:             DST64
================================================================================

--------------------------------------------------------------------------------
Analyzed: Groove Armada / Goodbye Country (Hello Nightclub)
--------------------------------------------------------------------------------

DR         Peak         RMS     Duration Track
--------------------------------------------------------------------------------
DR12      -5.16 dB   -19.43 dB      6:32 01-Suntoucher
DR11      -5.10 dB   -17.93 dB      6:01 02-Superstylin'
DR11      -5.34 dB   -19.32 dB      4:55 03-Drifted
DR15      -5.26 dB   -23.32 dB      5:28 04-Little by Little
DR14      -5.15 dB   -20.82 dB      6:55 05-Fogma
DR12      -5.67 dB   -20.30 dB      4:59 06-My Friend
DR12      -5.74 dB   -20.49 dB      6:33 07-Lazy Moon
DR12      -5.53 dB   -18.13 dB      5:32 08-Raisin' The Stakes
DR12      -5.32 dB   -19.03 dB      5:51 09-Healing
DR15      -5.33 dB   -21.59 dB      6:53 10-Edge Hill
DR12      -5.41 dB   -19.19 dB      4:40 11-Tuning In - Dub Mix
DR11      -6.00 dB   -19.28 dB      4:04 12-Join Hands
--------------------------------------------------------------------------------

Number of tracks:  12
Official DR value: DR12

Samplerate:        2822400 Hz / PCM Samplerate: 176400 Hz
Channels:          2
Bits per sample:   1
Bitrate:           5645 kbps
Codec:             DST64
================================================================================




Create a new paste based on this one


Comments: