[ create a new paste ] login | about

Link: http://codepad.org/Qt3bbqTB    [ raw code | fork ]

Plain Text, pasted on Apr 24:
[CUETools log; Date: 10/10/2015 11:28:26 AM; Version: 2.1.5]
[CTDB TOCID: QRhdocet7VbWRjqG4sey8J77X7k-] found.
Track | CTDB Status
  1   | (20/20) Accurately ripped
  2   | (20/20) Accurately ripped
  3   | (20/20) Accurately ripped
  4   | (20/20) Accurately ripped
  5   | (20/20) Accurately ripped
  6   | (20/20) Accurately ripped
  7   | (20/20) Accurately ripped
  8   | (20/20) Accurately ripped
  9   | (20/20) Accurately ripped
 10   | (20/20) Accurately ripped
 11   | (20/20) Accurately ripped
 12   | (20/20) Accurately ripped
[AccurateRip ID: 001517cc-00c4f61d-b50aed0c] found.
Track   [  CRC   |   V2   ] Status
 01     [fa9c735d|117a5f58] (02+49/51) Accurately ripped
 02     [28547b60|2535b34f] (02+49/51) Accurately ripped
 03     [cef11b89|81be87ee] (02+49/51) Accurately ripped
 04     [0bb4c604|3a038265] (02+49/51) Accurately ripped
 05     [b5f891be|bb898de0] (02+49/51) Accurately ripped
 06     [3f637989|215f97ab] (02+49/51) Accurately ripped
 07     [420bae2e|124a9e5e] (02+49/51) Accurately ripped
 08     [30b07d6c|0cb0aa6d] (02+49/51) Accurately ripped
 09     [91706558|d27a200b] (02+49/51) Accurately ripped
 10     [58cdaa08|346aaab6] (02+49/51) Accurately ripped
 11     [9c79b0ce|2c167ddc] (02+49/51) Accurately ripped
 12     [5d3b9f43|5fa0daeb] (02+49/51) Accurately ripped

Track Peak [ CRC32  ] [W/O NULL] [  LOG   ]
 --   97.7 [215A5361] [72E849D8]   CRC32   
 01   82.8 [1D6D0D72] [23260CB6]           
 02   92.5 [628E7BB5] [AC6A151F]           
 03   85.3 [A583777C] [6076CA87]           
 04   87.6 [17F94547] [CA04CDF0]           
 05   97.7 [29ACCBEA] [7D659F08]           
 06   64.5 [8F18AE48] [2EE6B511]           
 07   73.5 [D7FCF11C] [E699D687]           
 08   84.4 [DF9DC099] [4D0DA36E]           
 09   79.7 [EDDCF3B7] [63A3877B]           
 10   78.0 [A9DED727] [BAC215B9]           
 11   78.4 [D4460C45] [55DA23B0]           
 12   69.9 [7FD56C4A] [3DD4346A]           



Create a new paste based on this one


Comments: