[ create a new paste ] login | about

Link: http://codepad.org/Qtah1bDv    [ raw code | fork ]

Plain Text, pasted on Sep 7:
foobar2000 1.3.17 / Dynamic Range Meter 1.1.1
log date: 2018-09-07 09:21:49

--------------------------------------------------------------------------------
Analyzed: Paul Simon / In The Blue Light
--------------------------------------------------------------------------------

DR         Peak         RMS     Duration Track
--------------------------------------------------------------------------------
DR10      -0.91 dB   -13.89 dB      4:01 01-One Man's Ceiling Is Another Man's Floor
DR10      -0.07 dB   -13.34 dB      4:10 02-Love
DR12      -0.12 dB   -15.26 dB      3:29 03-Can't Run But
DR13      -0.93 dB   -17.80 dB      4:30 04-How The Heart Approaches What It Yearns
DR11      -0.09 dB   -13.81 dB      4:00 05-Pigs, Sheep And Wolves
DR11      -0.67 dB   -15.83 dB      4:44 06-René And Georgette Magritte With Their Dog After The War
DR11      -1.00 dB   -14.77 dB      3:45 07-The Teacher
DR11      -0.10 dB   -14.35 dB      7:13 08-Darling Lorraine
DR9       -0.79 dB   -14.83 dB      3:59 09-Some Folks' Lives Roll Easy
DR12      -0.07 dB   -16.29 dB      4:01 10-Questions For The Angels
--------------------------------------------------------------------------------

Number of tracks:  10
Official DR value: DR11

Samplerate:        96000 Hz
Channels:          2
Bits per sample:   24
Bitrate:           2622 kbps
Codec:             FLAC
================================================================================




Create a new paste based on this one


Comments: