[ create a new paste ] login | about

Link: http://codepad.org/R07K7eTK    [ raw code | fork ]

Plain Text, pasted on Jul 3:
Exact Audio Copy V0.99 prebeta 5 from 4. May 2009

EAC extraction logfile from 30. June 2016, 18:44

Gilbert O'Sullivan / The Essential Collection (Disc 2)

Used drive  : ATAPI   iHAS122   C   Adapter: 1  ID: 1

Read mode               : Secure
Utilize accurate stream : Yes
Defeat audio cache      : Yes
Make use of C2 pointers : No

Read offset correction                      : 6
Overread into Lead-In and Lead-Out          : No
Fill up missing offset samples with silence : Yes
Delete leading and trailing silent blocks   : No
Null samples used in CRC calculations       : Yes
Used interface                              : Native Win32 interface for Win NT & 2000

Used output format : Internal WAV Routines
Sample format      : 44.100 Hz; 16 Bit; Stereo


TOC of the extracted CD

     Track |   Start  |  Length  | Start sector | End sector 
    ---------------------------------------------------------
        1  |  0:00.00 |  3:39.54 |         0    |    16478   
        2  |  3:39.54 |  3:55.67 |     16479    |    34170   
        3  |  7:35.46 |  5:52.73 |     34171    |    60643   
        4  | 13:28.44 |  3:43.55 |     60644    |    77423   
        5  | 17:12.24 |  4:17.45 |     77424    |    96743   
        6  | 21:29.69 |  3:33.58 |     96744    |   112776   
        7  | 25:03.52 |  4:58.62 |    112777    |   135188   
        8  | 30:02.39 |  3:34.17 |    135189    |   151255   
        9  | 33:36.56 |  3:50.21 |    151256    |   168526   
       10  | 37:27.02 |  4:04.60 |    168527    |   186886   
       11  | 41:31.62 |  3:34.37 |    186887    |   202973   
       12  | 45:06.24 |  3:12.46 |    202974    |   217419   
       13  | 48:18.70 |  3:34.21 |    217420    |   233490   
       14  | 51:53.16 |  3:10.60 |    233491    |   247800   
       15  | 55:04.01 |  3:58.41 |    247801    |   265691   
       16  | 59:02.42 |  2:25.50 |    265692    |   276616   
       17  | 61:28.17 |  4:46.18 |    276617    |   298084   
       18  | 66:14.35 |  3:22.66 |    298085    |   313300   
       19  | 69:37.26 |  3:21.48 |    313301    |   328423   
       20  | 72:58.74 |  3:01.29 |    328424    |   342027   
       21  | 76:00.28 |  1:23.30 |    342028    |   348282   


Range status and errors

Selected range

     Filename C:\Users\Arturs\Desktop\Gilbert O'Sullivan - The Essential Collection (Disc 2).wav

     Peak level 97.7 %
     Range quality 100.0 %
     Test CRC 73DF9710
     Copy CRC 73DF9710
     Copy OK

No errors occurred

 
AccurateRip summary
 
Track  1  not present in database
Track  2  not present in database
Track  3  not present in database
Track  4  not present in database
Track  5  not present in database
Track  6  not present in database
Track  7  not present in database
Track  8  not present in database
Track  9  not present in database
Track 10  not present in database
Track 11  not present in database
Track 12  not present in database
Track 13  not present in database
Track 14  not present in database
Track 15  not present in database
Track 16  not present in database
Track 17  not present in database
Track 18  not present in database
Track 19  not present in database
Track 20  not present in database
Track 21  not present in database
 
None of the tracks are present in the AccurateRip database

End of status report



Create a new paste based on this one


Comments: