[ create a new paste ] login | about

Link: http://codepad.org/R2o5S93M    [ raw code | fork ]

Plain Text, pasted on Nov 23:
foobar2000 1.3.10 / Dynamic Range Meter 1.1.1
log date: 2016-11-22 20:23:56

--------------------------------------------------------------------------------
Analyzed: King Crimson / Absent Lovers (Live Montreal 1984) BD (5.1 Surround 24-48)
--------------------------------------------------------------------------------

DR         Peak         RMS     Duration Track
--------------------------------------------------------------------------------
DR9       -2.03 dB   -20.39 dB      6:30 01-Entry Of The Crims
DR9       -1.01 dB   -16.47 dB      5:06 02-Larks' Tongues In Aspic Part III
DR9       -1.00 dB   -15.64 dB      7:06 03-Thela Hun Ginjeet
DR10      -0.09 dB   -15.32 dB      5:48 04-Red
DR10      -3.71 dB   -21.02 dB      3:47 05-Matte Kudasai
DR9       -1.86 dB   -18.11 dB      7:31 06-Industry
DR8       -1.50 dB   -16.56 dB      4:00 07-Dig Me
DR8       -2.27 dB   -14.98 dB      4:31 08-Three Of A Perfect Pair
DR8       -1.17 dB   -16.62 dB      8:11 09-Indiscipline
DR8       -1.92 dB   -15.94 dB      4:39 10-Sartori In Tangier
DR9       -1.00 dB   -16.94 dB      3:58 11-Frame By Frame
DR8       -1.21 dB   -15.09 dB      3:45 12-Man With An Open Heart
DR7       -1.97 dB   -14.30 dB      6:27 13-Waiting Man
DR8       -2.17 dB   -14.50 dB      6:08 14-Sleepless
DR8       -2.39 dB   -16.52 dB      7:55 15-Larks' Tongues In Aspic Part II
DR8       -2.16 dB   -17.15 dB      5:04 16-Discipline
DR8       -1.66 dB   -16.94 dB      5:15 17-Heartbeat
DR9       -1.44 dB   -18.56 dB      8:58 18-Elephant Talk
--------------------------------------------------------------------------------

Number of tracks:  18
Official DR value: DR9

Samplerate:        48000 Hz
Channels:          6
Bits per sample:   24
Bitrate:           3661 kbps
Codec:             FLAC
================================================================================




foobar2000 1.3.10 / Dynamic Range Meter 1.1.1
log date: 2016-11-22 20:27:06

--------------------------------------------------------------------------------
Analyzed: King Crimson / Additionals BD (2016 Mix Stereo 24-96)
--------------------------------------------------------------------------------

DR         Peak         RMS     Duration Track
--------------------------------------------------------------------------------
DR12      -3.30 dB   -16.82 dB      2:43 01-Shidare Zakura
DR11      -1.50 dB   -15.11 dB      3:14 02-Industrial Zone A
DR12      -0.50 dB   -14.48 dB      5:35 03-Industrial Zone B
DR11      -0.50 dB   -14.13 dB     15:51 04-Industrial Zone C
--------------------------------------------------------------------------------

Number of tracks:  4
Official DR value: DR11

Samplerate:        96000 Hz
Channels:          2
Bits per sample:   24
Bitrate:           2770 kbps
Codec:             FLAC
================================================================================




foobar2000 1.3.10 / Dynamic Range Meter 1.1.1
log date: 2016-11-22 20:32:47

--------------------------------------------------------------------------------
Analyzed: King Crimson / Three Of A Perfect Pair BD (2016 Mix 5.1 Surround 24-96)
--------------------------------------------------------------------------------

DR         Peak         RMS     Duration Track
--------------------------------------------------------------------------------
DR14      -0.85 dB   -16.88 dB      4:22 01-Three Of A Perfect Pair
DR14      -0.85 dB   -17.81 dB      4:01 02-Model Man
DR13      -0.80 dB   -15.86 dB      5:36 03-Sleepless
DR14      -0.85 dB   -17.87 dB      3:07 04-Man With An Open Heart
DR13      -1.20 dB   -20.08 dB      4:48 05-Nuages (That Which Passes, Passes Like Clouds)
DR16      -0.85 dB   -21.28 dB      7:05 06-Industry
DR13      -0.85 dB   -19.35 dB      3:16 07-Dig Me
DR12      -0.85 dB   -17.42 dB      3:29 08-No Warning
DR14      -0.85 dB   -18.46 dB      6:07 09-Larks' Tongues In Aspic Part III
DR7       -5.64 dB   -22.64 dB      1:38 10-The King Crimson Barber Shop / Bonus
DR12      -3.29 dB   -22.88 dB      3:22 11-Robert's Ballad / Bonus
--------------------------------------------------------------------------------

Number of tracks:  11
Official DR value: DR13

Samplerate:        96000 Hz
Channels:          6
Bits per sample:   24
Bitrate:           6434 kbps
Codec:             FLAC
================================================================================




foobar2000 1.3.10 / Dynamic Range Meter 1.1.1
log date: 2016-11-22 20:36:34

--------------------------------------------------------------------------------
Analyzed: King Crimson / Three Of A Perfect Pair BD (2016 Mix Stereo 24-96)
--------------------------------------------------------------------------------

DR         Peak         RMS     Duration Track
--------------------------------------------------------------------------------
DR10      -0.50 dB   -12.24 dB      4:22 01-Three Of A Perfect Pair
DR8       -0.50 dB   -11.33 dB      4:01 02-Model Man
DR9       -0.50 dB   -11.07 dB      5:36 03-Sleepless
DR11      -0.50 dB   -13.00 dB      3:07 04-Man With An Open Heart
DR13      -0.50 dB   -15.12 dB      4:48 05-Nuages (That Which Passes, Passes Like Clouds)
DR12      -0.70 dB   -14.93 dB      7:05 06-Industry
DR11      -0.30 dB   -14.64 dB      3:16 07-Dig Me
DR10      -0.50 dB   -12.97 dB      3:29 08-No Warning
DR10      -0.50 dB   -13.21 dB      6:07 09-Larks' Tongues In Aspic Part III
DR12      -2.60 dB   -17.09 dB      1:38 10-The King Crimson Barber Shop / Bonus
DR11      -3.50 dB   -17.64 dB      3:22 11-Robert's Ballad / Bonus
--------------------------------------------------------------------------------

Number of tracks:  11
Official DR value: DR11

Samplerate:        96000 Hz
Channels:          2
Bits per sample:   24
Bitrate:           2706 kbps
Codec:             FLAC
================================================================================




foobar2000 1.3.10 / Dynamic Range Meter 1.1.1
log date: 2016-11-22 20:41:10

--------------------------------------------------------------------------------
Analyzed: King Crimson / Three Of A Perfect Pair BD (Original Mix Stereo 24-96)
--------------------------------------------------------------------------------

DR         Peak         RMS     Duration Track
--------------------------------------------------------------------------------
DR10      -0.68 dB   -12.26 dB      4:13 01-Three Of A Perfect Pair
DR9       -0.55 dB   -12.25 dB      3:50 02-Model Man
DR10      -0.42 dB   -12.01 dB      5:24 03-Sleepless
DR13      -0.42 dB   -14.99 dB      3:06 04-Man With An Open Heart
DR12      -0.71 dB   -15.78 dB      4:47 05-Nuages (That Which Passes, Passes Like Clouds)
DR15      -0.43 dB   -18.17 dB      7:06 06-Industry
DR12      -0.43 dB   -15.76 dB      3:17 07-Dig Me
DR12      -0.43 dB   -15.83 dB      3:29 08-No Warning
DR12      -0.42 dB   -14.42 dB      6:05 09-Larks' Tongues In Aspic Part III
DR13      -0.43 dB   -14.68 dB      1:38 10-The King Crimson Barber Shop / Bonus
DR11      -0.43 dB   -14.66 dB      1:44 11-Industrial Zone A / Bonus
DR11      -0.42 dB   -14.11 dB      4:33 12-Industrial Zone B / Bonus
DR10      -0.41 dB   -11.57 dB      7:27 13-Sleepless (Tony Lein Mix) / Bonus
DR10      -0.42 dB   -12.27 dB      5:24 14-Sleepless (Bob Clearmountain Mix / Bonus
DR9       -0.41 dB   -11.84 dB      6:19 15-Sleepless (Dance Mix / F. Kevorkian) / Bonus
--------------------------------------------------------------------------------

Number of tracks:  15
Official DR value: DR11

Samplerate:        96000 Hz
Channels:          2
Bits per sample:   24
Bitrate:           2788 kbps
Codec:             FLAC
================================================================================




Create a new paste based on this one


Comments: