[ create a new paste ] login | about

Link: http://codepad.org/R6jwPa44    [ raw code | fork ]

Plain Text, pasted on Nov 26:
Exact Audio Copy V1.3 from 2. September 2016

EAC extraction logfile from 22. November 2018, 8:40

The Jimi Hendrix Experience / Electric Ladyland CD2

Used drive  : PLEXTOR BD-R  PX-B950SA   Adapter: 1  ID: 1

Read mode               : Secure
Utilize accurate stream : Yes
Defeat audio cache      : Yes
Make use of C2 pointers : No

Read offset correction                      : 6
Overread into Lead-In and Lead-Out          : No
Fill up missing offset samples with silence : Yes
Delete leading and trailing silent blocks   : No
Null samples used in CRC calculations       : Yes
Used interface                              : Native Win32 interface for Win NT & 2000

Used output format : Internal WAV Routines
Sample format      : 44.100 Hz; 16 Bit; Stereo


TOC of the extracted CD

     Track |   Start  |  Length  | Start sector | End sector 
    ---------------------------------------------------------
        1  |  0:00.00 |  7:48.37 |         0    |    35136   
        2  |  7:48.37 |  3:21.69 |     35137    |    50280   
        3  | 11:10.31 |  3:15.35 |     50281    |    64940   
        4  | 14:25.66 |  1:21.29 |     64941    |    71044   
        5  | 15:47.20 | 10:05.62 |     71045    |   116481   
        6  | 25:53.07 |  3:02.71 |    116482    |   130202   
        7  | 28:56.03 |  1:50.17 |    130203    |   138469   
        8  | 30:46.20 |  2:09.29 |    138470    |   148173   
        9  | 32:55.49 |  2:05.67 |    148174    |   157615   
       10  | 35:01.41 |  1:53.02 |    157616    |   166092   
       11  | 36:54.43 |  0:45.47 |    166093    |   169514   
       12  | 37:40.15 |  4:11.69 |    169515    |   188408   
       13  | 41:52.09 |  1:36.57 |    188409    |   195665   
       14  | 43:28.66 |  4:59.66 |    195666    |   218156   
       15  | 48:28.57 |  3:30.44 |    218157    |   233950   
       16  | 51:59.26 |  3:55.53 |    233951    |   251628   
       17  | 55:55.04 |  4:15.64 |    251629    |   270817   
       18  | 60:10.68 |  4:37.19 |    270818    |   291611   
       19  | 64:48.12 |  3:13.50 |    291612    |   306136   
       20  | 68:01.62 | 10:21.50 |    306137    |   352761   


Range status and errors

Selected range

     Filename C:\Jimi Hendrix\1968 Electric Ladyland (4-Disc Box Set Legacy Records 2018)\CD2\The Jimi Hendrix Experience - Electric Ladyland CD2.wav

     Peak level 100.0 %
     Extraction speed 8.6 X
     Range quality 100.0 %
     Test CRC 4372C787
     Copy CRC 4372C787
     Copy OK

No errors occurred

 
AccurateRip summary
 
Track  1  cannot be verified as accurate (confidence 3)  [25D927EA], AccurateRip returned [A6B8CBCB]  (AR v2)
Track  2  cannot be verified as accurate (confidence 3)  [CBF92CED], AccurateRip returned [AB531B17]  (AR v2)
Track  3  cannot be verified as accurate (confidence 3)  [B0EBB535], AccurateRip returned [A8A7C6F4]  (AR v2)
Track  4  cannot be verified as accurate (confidence 3)  [B0D6BF5A], AccurateRip returned [F4C9F43D]  (AR v2)
Track  5  cannot be verified as accurate (confidence 3)  [0BF83A6B], AccurateRip returned [1951A1C2]  (AR v2)
Track  6  cannot be verified as accurate (confidence 3)  [A23F1BBA], AccurateRip returned [CD6EBE81]  (AR v2)
Track  7  cannot be verified as accurate (confidence 3)  [4D492560], AccurateRip returned [04B160AC]  (AR v2)
Track  8  cannot be verified as accurate (confidence 3)  [D41A5340], AccurateRip returned [F5B12574]  (AR v2)
Track  9  cannot be verified as accurate (confidence 3)  [98BDBBFE], AccurateRip returned [98A04AFD]  (AR v2)
Track 10  cannot be verified as accurate (confidence 3)  [3E8F836A], AccurateRip returned [1B39B7B5]  (AR v2)
Track 11  cannot be verified as accurate (confidence 3)  [7A653572], AccurateRip returned [6EA93F41]  (AR v2)
Track 12  cannot be verified as accurate (confidence 3)  [BD21C557], AccurateRip returned [8A097C57]  (AR v2)
Track 13  cannot be verified as accurate (confidence 3)  [CB4064C1], AccurateRip returned [7B028F96]  (AR v2)
Track 14  cannot be verified as accurate (confidence 3)  [DFB51F69], AccurateRip returned [E429FEB8]  (AR v2)
Track 15  cannot be verified as accurate (confidence 3)  [A6C9AC26], AccurateRip returned [CB2A8446]  (AR v2)
Track 16  cannot be verified as accurate (confidence 3)  [22B32AA6], AccurateRip returned [9F49DABF]  (AR v2)
Track 17  cannot be verified as accurate (confidence 3)  [C8AE32A8], AccurateRip returned [A9237758]  (AR v2)
Track 18  cannot be verified as accurate (confidence 3)  [118FDBB6], AccurateRip returned [24E20C5B]  (AR v2)
Track 19  cannot be verified as accurate (confidence 3)  [BA0CFB9C], AccurateRip returned [2830B8FD]  (AR v2)
Track 20  cannot be verified as accurate (confidence 3)  [59FFB935], AccurateRip returned [AFC59098]  (AR v2)
 
No tracks could be verified as accurate
You may have a different pressing from the one(s) in the database

End of status report

---- CUETools DB Plugin V2.1.6

[CTDB TOCID: pH7qJ6J1a_qXQY4FIWh0J_E.skk-] found
Submit result: pH7qJ6J1a_qXQY4FIWh0J_E.skk- has been confirmed
Track | CTDB Status
  1   | (62/62) Accurately ripped
  2   | (62/62) Accurately ripped
  3   | (62/62) Accurately ripped
  4   | (62/62) Accurately ripped
  5   | (62/62) Accurately ripped
  6   | (62/62) Accurately ripped
  7   | (62/62) Accurately ripped
  8   | (62/62) Accurately ripped
  9   | (62/62) Accurately ripped
 10   | (62/62) Accurately ripped
 11   | (62/62) Accurately ripped
 12   | (62/62) Accurately ripped
 13   | (62/62) Accurately ripped
 14   | (62/62) Accurately ripped
 15   | (62/62) Accurately ripped
 16   | (62/62) Accurately ripped
 17   | (62/62) Accurately ripped
 18   | (62/62) Accurately ripped
 19   | (62/62) Accurately ripped
 20   | (61/62) Accurately ripped


==== Log checksum C524E861146696E7937E64D9B5D49FFDEB0832036323BA4B6EFA8BB040D14CD0 ====



Create a new paste based on this one


Comments: