[ create a new paste ] login | about

Link: http://codepad.org/R7h5YdMB    [ raw code | fork ]

Plain Text, pasted on Dec 28:
foobar2000 1.3.8 / Dynamic Range Meter 1.1.1
log date: 2016-10-22 18:27:00

--------------------------------------------------------------------------------
Analyzed: The Rolling Stones / The Rolling Stones (U.K.)
--------------------------------------------------------------------------------

DR         Peak         RMS     Duration Track
--------------------------------------------------------------------------------
DR11       0.00 dB   -12.26 dB      2:22 01-Route 66
DR11       0.00 dB   -13.36 dB      2:18 02-I Just Want To Make Love To You
DR12      -0.56 dB   -14.21 dB      2:11 03-Honest I Do
DR12       0.00 dB   -13.31 dB      3:36 04-Mona (I Need You Baby)
DR10       0.00 dB   -11.86 dB      2:32 05-Now I've Got A Witness
DR12       0.00 dB   -13.01 dB      2:40 06-Little By Little
DR11       0.00 dB   -12.98 dB      2:37 07-I'm A King Bee
DR11      -0.05 dB   -12.48 dB      2:35 08-Carol
DR11       0.00 dB   -13.53 dB      3:50 09-Tell Me
DR11       0.00 dB   -12.85 dB      2:56 10-Can I Get A Witness
DR11       0.00 dB   -13.66 dB      2:02 11-You Can Make It If You Try
DR11       0.00 dB   -12.90 dB      3:09 12-Walking The Dog
--------------------------------------------------------------------------------

Number of tracks:  12
Official DR value: DR11

Samplerate:        192000 Hz
Channels:          2
Bits per sample:   24
Bitrate:           3377 kbps
Codec:             FLAC
================================================================================




Create a new paste based on this one


Comments: