[ create a new paste ] login | about

Link: http://codepad.org/R8x9ah2D    [ raw code | fork ]

Plain Text, pasted on Dec 23:
16/44
:::::

foobar2000 1.6 / Dynamic Range Meter 1.1.1
log date: 2020-12-23 20:00:35

--------------------------------------------------------------------------------
Analyzed: The Temptations / Give Love At Christmas
--------------------------------------------------------------------------------

DR         Peak         RMS     Duration Track
--------------------------------------------------------------------------------
DR10       0.00 dB   -12.96 dB      3:39 01-Give Love On Christmas Day
DR10       0.00 dB   -13.22 dB      5:13 02-The Christmas Song
DR11       0.00 dB   -13.84 dB      3:48 03-Love Comes With Christmas
DR12       0.00 dB   -14.51 dB      4:16 04-The Little Drummer Boy
DR11       0.00 dB   -14.61 dB      4:27 05-This Christmas
DR11       0.00 dB   -14.17 dB      4:16 06-Everything For Christmas
DR12       0.00 dB   -12.65 dB      2:57 07-Christmas Everyday
DR10       0.00 dB   -12.39 dB      6:06 08-Silent Night
--------------------------------------------------------------------------------

Number of tracks:  8
Official DR value: DR11

Samplerate:        44100 Hz
Channels:          2
Bits per sample:   16
Bitrate:           855 kbps
Codec:             FLAC
================================================================================



24/96
:::::

foobar2000 1.6 / Dynamic Range Meter 1.1.1
log date: 2020-12-23 20:00:48

--------------------------------------------------------------------------------
Analyzed: The Temptations / Give Love At Christmas
--------------------------------------------------------------------------------

DR         Peak         RMS     Duration Track
--------------------------------------------------------------------------------
DR10       0.00 dB   -12.95 dB      3:39 01-Give Love On Christmas Day
DR10       0.00 dB   -13.22 dB      5:13 02-The Christmas Song
DR11       0.00 dB   -13.84 dB      3:48 03-Love Comes With Christmas
DR12       0.00 dB   -14.51 dB      4:16 04-The Little Drummer Boy
DR11       0.00 dB   -14.61 dB      4:27 05-This Christmas
DR11       0.00 dB   -14.16 dB      4:16 06-Everything For Christmas
DR12       0.00 dB   -12.65 dB      2:57 07-Christmas Everyday
DR10       0.00 dB   -12.39 dB      6:06 08-Silent Night
--------------------------------------------------------------------------------

Number of tracks:  8
Official DR value: DR11

Samplerate:        96000 Hz
Channels:          2
Bits per sample:   24
Bitrate:           3164 kbps
Codec:             FLAC
================================================================================




Create a new paste based on this one


Comments: