[ create a new paste ] login | about

Link: http://codepad.org/RA01KjPB    [ raw code | fork ]

Plain Text, pasted on Dec 12:
[CUETools log; Date: 12/13/2019 12:00:42 AM; Version: 2.1.7]
[CTDB TOCID: 0Aw2y1SgqWvGYrDVVpj0SFpNoqw-] found.
Track | CTDB Status
  1   | (9/9) Accurately ripped
  2   | (9/9) Accurately ripped
  3   | (9/9) Accurately ripped
  4   | (9/9) Accurately ripped
  5   | (9/9) Accurately ripped
  6   | (9/9) Accurately ripped
  7   | (9/9) Accurately ripped
  8   | (9/9) Accurately ripped
[AccurateRip ID: 000c2856-00504cc4-64092a08] found.
Track   [  CRC   |   V2   ] Status
 01     [27c7015f|87ced666] (08+13/21) Accurately ripped
 02     [c6f353b2|81051f93] (08+13/21) Accurately ripped
 03     [0be739a3|44164bac] (08+13/21) Accurately ripped
 04     [09c28d9d|338832dc] (08+13/21) Accurately ripped
 05     [194ea914|568f0b0e] (08+13/21) Accurately ripped
 06     [5a0e7949|ed80a56a] (08+13/21) Accurately ripped
 07     [2357572f|af7ad6ad] (08+13/21) Accurately ripped
 08     [e0703587|31ce2bbb] (08+13/21) Accurately ripped

Track Peak [ CRC32  ] [W/O NULL] [  LOG   ]
 --   93.1 [DA556A4C] [89D94539]           
 01   93.1 [5E30D807] [C4F55D7B]   CRC32   
 02   85.6 [37B3722D] [B685B331]   CRC32   
 03   82.4 [2AF14CA5] [4F485C35]   CRC32   
 04   84.6 [C301FC5A] [F4463B3C]   CRC32   
 05   86.9 [B107A2E5] [5498511B]   CRC32   
 06   65.7 [B0882782] [9EF9D2AB]   CRC32   
 07   83.8 [2AF13D18] [40FE37D5]   CRC32   
 08   74.7 [9E17B6ED] [380E5059]   CRC32   



Create a new paste based on this one


Comments: