[ create a new paste ] login | about

Link: http://codepad.org/RDByDAsY    [ raw code | fork ]

Plain Text, pasted on Jun 25:
Exact Audio Copy V1.3 from 2. September 2016

EAC extraction logfile from 13. June 2019, 19:06

Be Bop Deluxe / Futurama CD1

Used drive  : PLEXTOR BD-R  PX-B950SA   Adapter: 1  ID: 1

Read mode               : Secure
Utilize accurate stream : Yes
Defeat audio cache      : Yes
Make use of C2 pointers : No

Read offset correction                      : 6
Overread into Lead-In and Lead-Out          : No
Fill up missing offset samples with silence : Yes
Delete leading and trailing silent blocks   : No
Null samples used in CRC calculations       : Yes
Used interface                              : Native Win32 interface for Win NT & 2000

Used output format : Internal WAV Routines
Sample format      : 44.100 Hz; 16 Bit; Stereo


TOC of the extracted CD

     Track |   Start  |  Length  | Start sector | End sector 
    ---------------------------------------------------------
        1  |  0:00.00 |  3:05.24 |         0    |    13898   
        2  |  3:05.24 |  3:12.01 |     13899    |    28299   
        3  |  6:17.25 |  2:26.13 |     28300    |    39262   
        4  |  8:43.38 |  3:35.52 |     39263    |    55439   
        5  | 12:19.15 |  6:18.53 |     55440    |    83842   
        6  | 18:37.68 |  4:44.40 |     83843    |   105182   
        7  | 23:22.33 |  2:52.67 |    105183    |   118149   
        8  | 26:15.25 |  3:17.63 |    118150    |   132987   
        9  | 29:33.13 |  6:08.47 |    132988    |   160634   
       10  | 35:41.60 |  3:19.13 |    160635    |   175572   
       11  | 39:00.73 |  2:45.09 |    175573    |   187956   


Range status and errors

Selected range

     Filename C:\Be Bop Deluxe\1975 Futurama (4-Disc Box Set Esoteric Records 2019)\CD1\Be Bop Deluxe - Futurama CD1.wav

     Peak level 98.8 %
     Extraction speed 3.0 X
     Range quality 100.0 %
     Test CRC 2A81159E
     Copy CRC 2A81159E
     Copy OK

No errors occurred

 
AccurateRip summary
 
Track  1  not present in database
Track  2  not present in database
Track  3  not present in database
Track  4  not present in database
Track  5  not present in database
Track  6  not present in database
Track  7  not present in database
Track  8  not present in database
Track  9  not present in database
Track 10  not present in database
Track 11  not present in database
 
None of the tracks are present in the AccurateRip database

End of status report

---- CUETools DB Plugin V2.1.6

[CTDB TOCID: nibqAHGg4Q48sz.SDQ4tCzkilgM-] found
Submit result: nibqAHGg4Q48sz.SDQ4tCzkilgM- has been confirmed
Track | CTDB Status
  1   | (2/2) Accurately ripped
  2   | (2/2) Accurately ripped
  3   | (2/2) Accurately ripped
  4   | (2/2) Accurately ripped
  5   | (2/2) Accurately ripped
  6   | (2/2) Accurately ripped
  7   | (2/2) Accurately ripped
  8   | (2/2) Accurately ripped
  9   | (2/2) Accurately ripped
 10   | (2/2) Accurately ripped
 11   | (2/2) Accurately ripped


==== Log checksum 3D59142D3096B57B40C5CBEA963AB1561A1BDEB8D5DF13B776425B37741A120C ====



Create a new paste based on this one


Comments: