[ create a new paste ] login | about

Link: http://codepad.org/RFpmuZnr    [ raw code | fork ]

Plain Text, pasted on Sep 3:
foobar2000 1.3.9 / Dynamic Range Meter 1.1.1
log date: 2015-11-24 12:07:22

--------------------------------------------------------------------------------
Analyzed: Joan Baez / Diamonds and Rust in the Bullring (2015 AP Hybrid SACD)
--------------------------------------------------------------------------------

DR         Peak         RMS     Duration Track
--------------------------------------------------------------------------------
DR13      -1.96 dB   -18.74 dB      3:41 01-Diamonds & Rust
DR12      -1.91 dB   -17.44 dB      1:25 02-Ain't Gonna Let Nobody Turn Me Around
DR12      -2.02 dB   -17.47 dB      3:48 03-No Woman, No Cry
DR12      -3.53 dB   -19.32 dB      4:58 04-Famous Blue Raincoat
DR11      -3.23 dB   -19.10 dB      3:39 05-Swing Low Sweet Chariot
DR11      -3.05 dB   -19.50 dB      4:02 06-Let It Be
DR14      -0.33 dB   -16.94 dB      3:13 07-El Preso Numero Nueve
DR12      -2.66 dB   -18.42 dB      2:38 08-Llego Con Tres Heridas
DR11      -4.27 dB   -19.12 dB      2:52 09-Txoria Txori
DR11      -0.01 dB   -16.64 dB      5:39 10-Ellas Danzan Solas
DR12      -2.66 dB   -17.73 dB      5:11 11-Gracias a la Vida
DR12      -3.22 dB   -19.69 dB      2:18 12-No Nos Moveran
--------------------------------------------------------------------------------

Number of tracks:  12
Official DR value: DR12

Samplerate:        88200 Hz
Channels:          2
Bits per sample:   24
Bitrate:           2596 kbps
Codec:             FLAC
================================================================================




Create a new paste based on this one


Comments: