[ create a new paste ] login | about

Link: http://codepad.org/RRZQ5hEa    [ raw code | fork ]

Plain Text, pasted on Dec 19:
[CUETools log; Date: 12/19/2018 7:53:28 AM; Version: 2.1.5]
[CTDB TOCID: 8I8.67fnVd3gKOz0MV0uKWkQEiY-] found.
Track | CTDB Status
  1   | (72/72) Accurately ripped
  2   | (72/72) Accurately ripped
  3   | (72/72) Accurately ripped
  4   | (72/72) Accurately ripped
  5   | (72/72) Accurately ripped
  6   | (72/72) Accurately ripped
  7   | (72/72) Accurately ripped
  8   | (72/72) Accurately ripped
  9   | (72/72) Accurately ripped
 10   | (72/72) Accurately ripped
 11   | (72/72) Accurately ripped
 12   | (72/72) Accurately ripped
[AccurateRip ID: 001b8408-01027f2f-b20e790c] found.
Track   [  CRC   |   V2   ] Status
 01     [96a401d7|4e217c98] (00+14/14) Accurately ripped
 02     [a64a648c|d4d9585c] (00+14/14) Accurately ripped
 03     [f02c5d53|d5045a6b] (00+14/14) Accurately ripped
 04     [e3948173|1851f46a] (00+14/14) Accurately ripped
 05     [5c749add|b7d6fed1] (00+14/14) Accurately ripped
 06     [0e1c00e6|87a6be37] (00+14/14) Accurately ripped
 07     [f33ab8cd|a9e165c7] (00+14/14) Accurately ripped
 08     [d9611263|cf6ec65f] (00+14/14) Accurately ripped
 09     [2f8fee09|4839c5ed] (00+14/14) Accurately ripped
 10     [1a09dd05|0013f93c] (00+14/14) Accurately ripped
 11     [7a9af905|87d95cd3] (00+14/14) Accurately ripped
 12     [c4e61c24|1b4195f3] (00+14/14) Accurately ripped

Track Peak [ CRC32  ] [W/O NULL] [  LOG   ]
 --   98.2 [7B7B380A] [6D42E051]   CRC32   
 01   77.7 [8607F4DB] [F8062C2C]           
 02   95.3 [B5DC315F] [FA39CCF1]           
 03   98.2 [F006B914] [04C907A9]           
 04   95.0 [02811619] [FEF7BA27]           
 05   94.9 [C9BE2768] [6267BDA7]           
 06   94.6 [9D52D7D4] [62DDA87A]           
 07   95.1 [8C2A224E] [2FB854A1]           
 08   95.1 [DBEDF269] [C5732B3C]           
 09   94.7 [DCBFF876] [018F12D7]           
 10   94.7 [7FD0E153] [7EABD505]           
 11   94.6 [3BAD78DA] [91920E4A]           
 12   94.7 [9E989E9D] [C4E5B309]           



Create a new paste based on this one


Comments: