[ create a new paste ] login | about

Link: http://codepad.org/RRq6yUnT    [ raw code | fork ]

Plain Text, pasted on Jan 9:
Exact Audio Copy V1.0 beta 3 from 29. August 2011

EAC extraction logfile from 15. May 2013, 20:15

Doobie Brothers / The Captain And Me

Used drive  : PLEXTOR BD-R  PX-B950SA   Adapter: 6  ID: 0

Read mode               : Secure
Utilize accurate stream : Yes
Defeat audio cache      : Yes
Make use of C2 pointers : No

Read offset correction                      : 6
Overread into Lead-In and Lead-Out          : No
Fill up missing offset samples with silence : Yes
Delete leading and trailing silent blocks   : No
Null samples used in CRC calculations       : Yes
Used interface                              : Native Win32 interface for Win NT & 2000

Used output format : Internal WAV Routines
Sample format      : 44.100 Hz; 16 Bit; Stereo


TOC of the extracted CD

     Track |   Start  |  Length  | Start sector | End sector 
    ---------------------------------------------------------
        1  |  0:00.00 |  3:19.60 |         0    |    14984   
        2  |  3:19.60 |  3:27.72 |     14985    |    30581   
        3  |  6:47.57 |  3:17.35 |     30582    |    45391   
        4  | 10:05.17 |  4:14.15 |     45392    |    64456   
        5  | 14:19.32 |  5:19.10 |     64457    |    88391   
        6  | 19:38.42 |  5:01.53 |     88392    |   111019   
        7  | 24:40.20 |  5:29.30 |    111020    |   135724   
        8  | 30:09.50 |  3:20.30 |    135725    |   150754   
        9  | 33:30.05 |  0:48.50 |    150755    |   154404   
       10  | 34:18.55 |  3:02.22 |    154405    |   168076   
       11  | 37:21.02 |  4:49.28 |    168077    |   189779   


Range status and errors

Selected range

     Filename C:\Doobie Brothers\2013 Original Album Series (5CD Box Set Rhino Records)\1973 The Captain And Me\Doobie Brothers - The Captain And Me.wav

     Peak level 100.0 %
     Extraction speed 8.6 X
     Range quality 100.0 %
     Test CRC 56DFA3EA
     Copy CRC 56DFA3EA
     Copy OK

No errors occurred

 
AccurateRip summary
 
Track  1  cannot be verified as accurate (confidence 6)  [7178A67D], AccurateRip returned [61F9A3BF]  (AR v2)
Track  2  cannot be verified as accurate (confidence 6)  [7803EED7], AccurateRip returned [8E13564A]  (AR v2)
Track  3  cannot be verified as accurate (confidence 6)  [041637E5], AccurateRip returned [8382AD2C]  (AR v2)
Track  4  cannot be verified as accurate (confidence 6)  [B3FE492A], AccurateRip returned [8AFC695C]  (AR v2)
Track  5  cannot be verified as accurate (confidence 6)  [F8FC8231], AccurateRip returned [F9DA63E9]  (AR v2)
Track  6  cannot be verified as accurate (confidence 6)  [0F0F96D8], AccurateRip returned [ABB83E81]  (AR v2)
Track  7  cannot be verified as accurate (confidence 6)  [18970A38], AccurateRip returned [B696A0F1]  (AR v2)
Track  8  cannot be verified as accurate (confidence 6)  [49CCBE18], AccurateRip returned [122AC6D4]  (AR v2)
Track  9  cannot be verified as accurate (confidence 6)  [0B4BA5D7], AccurateRip returned [1045DDAE]  (AR v2)
Track 10  cannot be verified as accurate (confidence 6)  [516B1361], AccurateRip returned [C835ABCD]  (AR v2)
Track 11  cannot be verified as accurate (confidence 6)  [A0B9FEA4], AccurateRip returned [3D1810A7]  (AR v2)
 
No tracks could be verified as accurate
You may have a different pressing from the one(s) in the database

End of status report

==== Log checksum 4346B9809577647D7DFC1B885DD786F1A682F59B59D1D5CBEAE397764D031E80 ====



Create a new paste based on this one


Comments: