[ create a new paste ] login | about

Link: http://codepad.org/RbTVb7Gh    [ raw code | fork ]

Plain Text, pasted on May 8:
foobar2000 1.4.1 / Dynamic Range Meter 1.1.1
log date: 2019-05-07 23:13:01

--------------------------------------------------------------------------------
Analyzed: Miles Davis / Someday My Prince Will Come
--------------------------------------------------------------------------------

DR         Peak         RMS     Duration Track
--------------------------------------------------------------------------------
DR13      -0.75 dB   -16.97 dB      9:10 01-Someday My Prince Will Come
DR12      -3.03 dB   -18.44 dB      5:21 02-Old Folks
DR13      -0.61 dB   -17.37 dB      8:37 03-Pfrancing
DR11      -2.38 dB   -17.32 dB      4:33 04-Drad-Dog
DR12      -0.05 dB   -14.59 dB      9:38 05-Teo
DR14      -0.05 dB   -18.32 dB      4:56 06-I Thought About You
--------------------------------------------------------------------------------

Number of tracks:  6
Official DR value: DR12

Samplerate:        88200 Hz
Channels:          2
Bits per sample:   24
Bitrate:           2558 kbps
Codec:             FLAC
================================================================================




Create a new paste based on this one


Comments: