[ create a new paste ] login | about

Link: http://codepad.org/Rbq8KAy7    [ raw code | fork ]

Plain Text, pasted on Dec 19:
[CUETools log; Date: 12/19/2018 7:55:06 AM; Version: 2.1.5]
[CTDB TOCID: y1Voyo4wN9Qmq2ZyHc_fyecYMj0-] found.
Track | CTDB Status
  1   | (70/71) Accurately ripped
  2   | (69/71) Accurately ripped
  3   | (69/71) Accurately ripped
  4   | (69/71) Accurately ripped
  5   | (69/71) Accurately ripped
  6   | (69/71) Accurately ripped
  7   | (69/71) Accurately ripped
  8   | (69/71) Accurately ripped
  9   | (69/71) Accurately ripped
 10   | (69/71) Accurately ripped
 11   | (69/71) Accurately ripped
 12   | (69/71) Accurately ripped
 13   | (69/71) Accurately ripped
 14   | (69/71) Accurately ripped
 15   | (69/71) Accurately ripped
[AccurateRip ID: 00238fcf-01948725-d90f6f0f] found.
Track   [  CRC   |   V2   ] Status
 01     [5d0980a7|cdf68d9c] (00+16/16) Accurately ripped
 02     [61eeaf49|8ab3e36f] (00+16/16) Accurately ripped
 03     [2aaf2837|28e23a10] (00+16/16) Accurately ripped
 04     [1180cdd1|ede08e4a] (00+16/16) Accurately ripped
 05     [c2356f95|a1bfc82d] (00+16/16) Accurately ripped
 06     [051c8759|dcd33749] (00+16/16) Accurately ripped
 07     [0cc40ed0|26ed7519] (00+16/16) Accurately ripped
 08     [fffc74eb|d0ad027b] (00+16/16) Accurately ripped
 09     [251fef30|7d7cd1e1] (00+16/16) Accurately ripped
 10     [4aedc629|ba48713f] (00+16/16) Accurately ripped
 11     [ef2f13be|c9ba9018] (00+16/16) Accurately ripped
 12     [87b6c02c|fa9c2198] (00+16/16) Accurately ripped
 13     [8a1d9f54|d88b80e7] (00+16/16) Accurately ripped
 14     [90386b41|582aaaac] (00+16/16) Accurately ripped
 15     [ab2c4ac9|51e31dda] (00+16/16) Accurately ripped

Track Peak [ CRC32  ] [W/O NULL] [  LOG   ]
 --   97.7 [5354C0B6] [BC1375FD]   CRC32   
 01   97.7 [B172FC54] [CE9314AA]           
 02   97.7 [2A1D0CB9] [3D735B06]           
 03   97.7 [5D083A6C] [7B718BDD]           
 04   82.6 [7AC56F18] [F09C4615]           
 05   96.6 [D0510380] [013A6160]           
 06   97.7 [33E5A2A4] [26D95BA1]           
 07   92.0 [AE9EA122] [431EF9D4]           
 08   97.0 [1E3F632B] [D9B0E205]           
 09   97.0 [77F8D007] [773B091E]           
 10   83.8 [2914207A] [AFCC4740]           
 11   86.9 [A6E0C609] [3DE477BB]           
 12   65.4 [F79022C3] [178CA45A]           
 13   62.8 [AB81832E] [00B67966]           
 14   61.4 [B23BCC42] [BFEB41D4]           
 15   62.7 [AA7A9E8F] [B6A819B2]           



Create a new paste based on this one


Comments: