[ create a new paste ] login | about

Link: http://codepad.org/RfucsNfR    [ raw code | fork ]

Plain Text, pasted on Aug 26:
EAC extraction logfile from 11. June 2007, 22:27 for CD
The Nat ''King'' Cole Trio / The Complete Capitol Recordings Of The Nat ''King'' Cole Trio - Disc 18

Used drive  : HL-DT-STDVD-ROM GDR8164B   Adapter: 0  ID: 1
Read mode   : Secure with NO C2, accurate stream, disable cache
Read offset correction : 102
Overread into Lead-In and Lead-Out : No

Used output format : C:\Programmi\Exact Audio Copy\flac.exe   (User Defined Encoder)
                     128 kBit/s
                     Additional command line options : -V -8 -T "artist=%a" -T "title=%t" -T "album=%g" -T "date=%y" -T "tracknumber=%n" -T "genre=%m" %s

Other options      : 
    Fill up missing offset samples with silence : Yes
    Delete leading and trailing silent blocks : No
    Native Win32 interface for Win NT & 2000


Track  1
     Filename D:\TORRENTS\Nat King Cole 3 - The Complete Capitol Recordings of the NKC Trio (1991) [FLAC] {Mosaic MD18 - 138}\CD 18\01 - Just You, Just Me (G4).wav

     Pre-gap length  0:00:02.44

     Peak level 96.8 %
     Track quality 100.0 %
     Test CRC CCF7D775
     Copy CRC CCF7D775
     Copy OK

Track  2
     Filename D:\TORRENTS\Nat King Cole 3 - The Complete Capitol Recordings of the NKC Trio (1991) [FLAC] {Mosaic MD18 - 138}\CD 18\02 - I Was A Little Too Lonely And You Were A Little Too Late (G4).wav

     Pre-gap length  0:00:02.20

     Peak level 96.8 %
     Track quality 100.0 %
     Test CRC 2EDE8128
     Copy CRC 2EDE8128
     Copy OK

Track  3
     Filename D:\TORRENTS\Nat King Cole 3 - The Complete Capitol Recordings of the NKC Trio (1991) [FLAC] {Mosaic MD18 - 138}\CD 18\03 - Caravan (H4).wav

     Pre-gap length  0:00:02.40

     Peak level 93.7 %
     Track quality 100.0 %
     Test CRC 5AC4FCC3
     Copy CRC 5AC4FCC3
     Copy OK

Track  4
     Filename D:\TORRENTS\Nat King Cole 3 - The Complete Capitol Recordings of the NKC Trio (1991) [FLAC] {Mosaic MD18 - 138}\CD 18\04 - The Lonely One (H4).wav

     Pre-gap length  0:00:02.13

     Peak level 90.8 %
     Track quality 100.0 %
     Test CRC D1DBD510
     Copy CRC D1DBD510
     Copy OK

Track  5
     Filename D:\TORRENTS\Nat King Cole 3 - The Complete Capitol Recordings of the NKC Trio (1991) [FLAC] {Mosaic MD18 - 138}\CD 18\05 - Blame It On My Youth (H4).wav

     Pre-gap length  0:00:01.96

     Peak level 96.8 %
     Track quality 100.0 %
     Test CRC 30536EC7
     Copy CRC 30536EC7
     Copy OK

Track  6
     Filename D:\TORRENTS\Nat King Cole 3 - The Complete Capitol Recordings of the NKC Trio (1991) [FLAC] {Mosaic MD18 - 138}\CD 18\06 - What Is There To Say  (H4).wav

     Pre-gap length  0:00:02.24

     Peak level 96.8 %
     Track quality 100.0 %
     Test CRC 9DA5F697
     Copy CRC 9DA5F697
     Copy OK

Track  7
     Filename D:\TORRENTS\Nat King Cole 3 - The Complete Capitol Recordings of the NKC Trio (1991) [FLAC] {Mosaic MD18 - 138}\CD 18\07 - Sometimes I'm Happy (I4).wav

     Pre-gap length  0:00:02.06

     Peak level 96.8 %
     Track quality 100.0 %
     Test CRC D0ADCC8F
     Copy CRC D0ADCC8F
     Copy OK

Track  8
     Filename D:\TORRENTS\Nat King Cole 3 - The Complete Capitol Recordings of the NKC Trio (1991) [FLAC] {Mosaic MD18 - 138}\CD 18\08 - I Know That You Know (I4).wav

     Pre-gap length  0:00:02.13

     Peak level 96.8 %
     Track quality 99.9 %
     Test CRC B73823E7
     Copy CRC B73823E7
     Copy OK

Track  9
     Filename D:\TORRENTS\Nat King Cole 3 - The Complete Capitol Recordings of the NKC Trio (1991) [FLAC] {Mosaic MD18 - 138}\CD 18\09 - When I Grow Too Old To Dream (I4).wav

     Pre-gap length  0:00:01.24

     Peak level 87.0 %
     Track quality 100.0 %
     Test CRC C4C8A7ED
     Copy CRC C4C8A7ED
     Copy OK

Track 10
     Filename D:\TORRENTS\Nat King Cole 3 - The Complete Capitol Recordings of the NKC Trio (1991) [FLAC] {Mosaic MD18 - 138}\CD 18\10 - Two Loves Have I (I4).wav

     Pre-gap length  0:00:02.13

     Peak level 93.9 %
     Track quality 100.0 %
     Test CRC FCF4654F
     Copy CRC FCF4654F
     Copy OK

Track 11
     Filename D:\TORRENTS\Nat King Cole 3 - The Complete Capitol Recordings of the NKC Trio (1991) [FLAC] {Mosaic MD18 - 138}\CD 18\11 - Whatcha' Gonna Do (J4).wav

     Pre-gap length  0:00:02.60

     Peak level 96.8 %
     Track quality 100.0 %
     Test CRC 93C06A0B
     Copy CRC 93C06A0B
     Copy OK

Track 12
     Filename D:\TORRENTS\Nat King Cole 3 - The Complete Capitol Recordings of the NKC Trio (1991) [FLAC] {Mosaic MD18 - 138}\CD 18\12 - In A Mellow Tone (J4).wav

     Pre-gap length  0:00:01.86

     Peak level 83.1 %
     Track quality 100.0 %
     Test CRC 214837C4
     Copy CRC 214837C4
     Copy OK

Track 13
     Filename D:\TORRENTS\Nat King Cole 3 - The Complete Capitol Recordings of the NKC Trio (1991) [FLAC] {Mosaic MD18 - 138}\CD 18\13 - Where Or When (K4).wav

     Pre-gap length  0:00:02.40

     Peak level 92.8 %
     Track quality 100.0 %
     Test CRC A3191C85
     Copy CRC A3191C85
     Copy OK

Track 14
     Filename D:\TORRENTS\Nat King Cole 3 - The Complete Capitol Recordings of the NKC Trio (1991) [FLAC] {Mosaic MD18 - 138}\CD 18\14 - It's Only A Paper Moon (L4).wav

     Pre-gap length  0:00:02.22

     Peak level 96.8 %
     Track quality 100.0 %
     Test CRC C8D2D8CA
     Copy CRC C8D2D8CA
     Copy OK

Track 15
     Filename D:\TORRENTS\Nat King Cole 3 - The Complete Capitol Recordings of the NKC Trio (1991) [FLAC] {Mosaic MD18 - 138}\CD 18\15 - Sweet Lorraine (L4).wav

     Pre-gap length  0:00:01.66

     Peak level 90.6 %
     Track quality 99.9 %
     Test CRC 6FF1213B
     Copy CRC 6FF1213B
     Copy OK

Track 16
     Filename D:\TORRENTS\Nat King Cole 3 - The Complete Capitol Recordings of the NKC Trio (1991) [FLAC] {Mosaic MD18 - 138}\CD 18\16 - (Get Your Kicks On) Route 66 (M4).wav

     Pre-gap length  0:00:02.53

     Peak level 96.8 %
     Track quality 100.0 %
     Test CRC 0D2741CA
     Copy CRC 0D2741CA
     Copy OK

Track 17
     Filename D:\TORRENTS\Nat King Cole 3 - The Complete Capitol Recordings of the NKC Trio (1991) [FLAC] {Mosaic MD18 - 138}\CD 18\17 - Straighten Up And Fly Right (M4).wav

     Pre-gap length  0:00:02.33

     Peak level 92.2 %
     Track quality 99.9 %
     Test CRC 0B9146AA
     Copy CRC 0B9146AA
     Copy OK

Track 18
     Filename D:\TORRENTS\Nat King Cole 3 - The Complete Capitol Recordings of the NKC Trio (1991) [FLAC] {Mosaic MD18 - 138}\CD 18\18 - (I Love You) For Sentimental Reasons (M4).wav

     Pre-gap length  0:00:02.06

     Peak level 69.9 %
     Track quality 100.0 %
     Test CRC D1CB6CA5
     Copy CRC D1CB6CA5
     Copy OK

Track 19
     Filename D:\TORRENTS\Nat King Cole 3 - The Complete Capitol Recordings of the NKC Trio (1991) [FLAC] {Mosaic MD18 - 138}\CD 18\19 - Embraceable You (M4).wav

     Pre-gap length  0:00:01.76

     Peak level 88.9 %
     Track quality 99.9 %
     Test CRC F1D66EC7
     Copy CRC F1D66EC7
     Copy OK

No errors occured


End of status report



Create a new paste based on this one


Comments: