[ create a new paste ] login | about

Link: http://codepad.org/RgDW4xFb    [ raw code | fork ]

Plain Text, pasted on Jul 11:
[CUETools log; Date: 7/11/2018 7:30:20 AM; Version: 2.1.5]
[CTDB TOCID: lCg9H4FdC5PcF9n7VRfrUPYey7o-] found.
Track | CTDB Status
  1   | (28/28) Accurately ripped
  2   | (28/28) Accurately ripped
  3   | (28/28) Accurately ripped
  4   | (28/28) Accurately ripped
  5   | (28/28) Accurately ripped
  6   | (28/28) Accurately ripped
  7   | (28/28) Accurately ripped
[AccurateRip ID: 00191118-008c11ad-5b111207] found.
Track   [  CRC   |   V2   ] Status
 01     [97504897|d2ca20d2] (0+9/9) Accurately ripped
 02     [96d0cf3c|2294a747] (0+9/9) Accurately ripped
 03     [221cf6fe|14c30314] (0+9/9) Accurately ripped
 04     [38810611|f65fc5ab] (0+9/9) Accurately ripped
 05     [7526de70|a4c52623] (0+9/9) Accurately ripped
 06     [ff768c88|3848eeef] (0+9/9) Accurately ripped
 07     [90d75666|183b415f] (0+9/9) Accurately ripped

Track Peak [ CRC32  ] [W/O NULL] [  LOG   ]
 --  100.0 [0E01A516] [FCD24336]   CRC32   
 01   96.6 [A5EF9F02] [DE1AA207]           
 02   96.6 [94BF24D3] [CB0107EE]           
 03  100.0 [DC51829E] [C6B14C2A]           
 04   76.7 [0E5E1187] [50701A8D]           
 05   96.6 [245CA252] [0EEE1D42]           
 06   86.0 [0FDAF5BB] [7C530B02]           
 07   93.1 [4D78B3DE] [B713351D]           


[CUETools log; Date: 7/11/2018 7:30:46 AM; Version: 2.1.5]
[CTDB TOCID: V08jZ46iYKcwcVALNGnRvuswVTE-] found.
Track | CTDB Status
  1   | (29/29) Accurately ripped
  2   | (29/29) Accurately ripped
  3   | (29/29) Accurately ripped
  4   | (29/29) Accurately ripped
  5   | (29/29) Accurately ripped
  6   | (29/29) Accurately ripped
  7   | (29/29) Accurately ripped
  8   | (29/29) Accurately ripped
  9   | (28/29) Accurately ripped
[AccurateRip ID: 00127461-00858315-7e0e1409] found.
Track   [  CRC   |   V2   ] Status
 01     [4518e501|18920420] (0+9/9) Accurately ripped
 02     [3197e814|7cfe77de] (0+9/9) Accurately ripped
 03     [8dd23a90|17dc5142] (0+9/9) Accurately ripped
 04     [c146f27f|8ce2f11a] (0+9/9) Accurately ripped
 05     [40951122|a6850fa4] (0+9/9) Accurately ripped
 06     [21dbc2b5|698671e0] (0+9/9) Accurately ripped
 07     [b20a1b74|005f6bb4] (0+9/9) Accurately ripped
 08     [3b41a31d|43ba017f] (0+9/9) Accurately ripped
 09     [bc9f44bf|109100eb] (0+9/9) Accurately ripped

Track Peak [ CRC32  ] [W/O NULL] [  LOG   ]
 --   97.7 [CE18BDBE] [F55D8FBE]   CRC32   
 01   96.6 [10346DEE] [7D433A5F]           
 02   96.6 [DF25E030] [0C2A4CDA]           
 03   96.6 [7A5B23DB] [4D3F4496]           
 04   76.7 [D2681E99] [7F113A71]           
 05   96.6 [21F22347] [54EFC3BF]           
 06   96.6 [BD08A643] [9AE374F1]           
 07   86.1 [E7F90CD5] [6BF5B168]           
 08   73.2 [678C00AC] [A09A36EB]           
 09   97.7 [7578E268] [7A17E9B7]           



Create a new paste based on this one


Comments: