[ create a new paste ] login | about

Link: http://codepad.org/RgVqGP7x    [ raw code | fork ]

Plain Text, pasted on Sep 25:
foobar2000 1.3.17 / Dynamic Range Meter 1.1.1
log date: 2018-09-25 11:30:37

--------------------------------------------------------------------------------
Analyzed: Suede / The Blue Hour
--------------------------------------------------------------------------------

DR         Peak         RMS     Duration Track
--------------------------------------------------------------------------------
DR7       -0.17 dB   -13.18 dB      4:10 01-As One
DR8       -0.15 dB   -10.51 dB      5:32 02-Wastelands
DR8       -0.15 dB   -10.44 dB      3:24 03-Mistress
DR9       -0.15 dB   -11.21 dB      4:07 04-Beyond The Outskirts
DR8       -0.17 dB   -12.48 dB      2:04 05-Chalk Circles
DR8       -0.16 dB    -9.69 dB      3:17 06-Cold Hands
DR8       -0.17 dB    -9.98 dB      3:58 07-Life Is Golden
DR10      -0.17 dB   -14.27 dB      2:07 08-Roadkill
DR7       -0.17 dB   -10.06 dB      4:09 09-Tides
DR10      -0.17 dB   -11.20 dB      4:24 10-Don't Be Afraid If Nobody Loves You
DR15      -0.17 dB   -19.62 dB      0:27 11-Dead Bird
DR10      -0.17 dB   -14.04 dB      3:15 12-All The Wild Places
DR9       -0.17 dB   -12.86 dB      4:10 13-The Invisibles
DR7       -0.17 dB   -11.19 dB      6:41 14-Flytipping
--------------------------------------------------------------------------------

Number of tracks:  14
Official DR value: DR9

Samplerate:        44100 Hz
Channels:          2
Bits per sample:   24
Bitrate:           1552 kbps
Codec:             FLAC
================================================================================




Create a new paste based on this one


Comments: