[ create a new paste ] login | about

Link: http://codepad.org/Rm9KAShN    [ raw code | fork ]

Plain Text, pasted on Apr 27:
foobar2000 1.3.8 / Dynamic Range Meter 1.1.1
log date: 2015-09-07 11:34:17

--------------------------------------------------------------------------------
Analyzed: The Doors / The Best of The Doors (2015 AF Hybrid SACD)
--------------------------------------------------------------------------------

DR         Peak         RMS     Duration Track
--------------------------------------------------------------------------------
DR9       -5.16 dB   -22.20 dB      6:41 01-Who Do You Love?
DR10      -4.41 dB   -22.29 dB      3:32 02-Soul Kitchen
DR10      -4.40 dB   -20.21 dB      2:25 03-Hello, I Love You
DR9       -5.57 dB   -22.31 dB      2:11 04-People Are Strange
DR12      -3.72 dB   -23.71 dB      7:05 05-Riders On The Storm
DR10      -5.36 dB   -21.61 dB      3:12 06-Touch Me
DR10      -3.90 dB   -20.25 dB      3:22 07-Love Her Madly
DR10      -3.72 dB   -20.82 dB      3:16 08-Love Me Two Times
DR9       -4.69 dB   -20.65 dB      2:16 09-Take It As It Comes
DR10      -3.37 dB   -20.66 dB      3:03 10-Moonlight Drive
DR9       -4.99 dB   -21.35 dB      6:59 11-Light My Fire
--------------------------------------------------------------------------------

Number of tracks:  11
Official DR value: DR10

Samplerate:        88200 Hz
Channels:          6
Bits per sample:   24
Bitrate:           5418 kbps
Codec:             FLAC
================================================================================




Create a new paste based on this one


Comments: