[ create a new paste ] login | about

Link: http://codepad.org/RmFrm3gQ    [ raw code | fork ]

Plain Text, pasted on Feb 24:
[CUETools log; Date: 2/24/2018 9:24:19 AM; Version: 2.1.5]
[CTDB TOCID: FGnDyoivcNLyuW1LpnSNdx6RWWc-] found.
Track | CTDB Status
  1   | (133/134) Accurately ripped
  2   | (133/134) Accurately ripped
  3   | (133/134) Accurately ripped
  4   | (133/134) Accurately ripped
  5   | (133/134) Accurately ripped
  6   | (133/134) Accurately ripped
  7   | (133/134) Accurately ripped
  8   | (133/134) Accurately ripped
  9   | (133/134) Accurately ripped
 10   | (134/134) Accurately ripped
[AccurateRip ID: 000fb822-007ce242-73097f0a] found.
Track   [  CRC   |   V2   ] Status
 01     [396cb161|49a3133f] (07+70/77) Accurately ripped
 02     [09ed754a|aad3cade] (07+70/77) Accurately ripped
 03     [fb8c3b11|5f4f688c] (07+70/77) Accurately ripped
 04     [9d1e786e|18c1b92b] (07+70/77) Accurately ripped
 05     [e4f5e3c1|4a0e8721] (07+70/77) Accurately ripped
 06     [2ed5178f|8b63682d] (07+70/77) Accurately ripped
 07     [0503d4c8|d62513f9] (07+69/76) Accurately ripped
 08     [077b8525|f2a8386b] (07+69/76) Accurately ripped
 09     [a15ceb16|e03eb77d] (07+70/77) Accurately ripped
 10     [a0196da2|2364bc6a] (06+69/75) Accurately ripped

Track Peak [ CRC32  ] [W/O NULL] [  LOG   ]
 --   82.2 [BA8177B5] [57B1BDD5]           
 01   76.5 [DD703518] [20FDAAFB]   CRC32   
 02   76.3 [6957F174] [24BA037D]   CRC32   
 03   74.4 [9063102F] [0BC32DBB]   CRC32   
 04   65.5 [DE852DC1] [FA1898B8]   CRC32   
 05   64.6 [67C2F661] [3A8D2DCE]   CRC32   
 06   77.9 [F811945F] [7F370F25]   CRC32   
 07   73.8 [89320754] [A71BDF9E]   CRC32   
 08   73.0 [70861929] [1CF7FB49]   CRC32   
 09   78.0 [0C558CF0] [38B077E0]   CRC32   
 10   82.2 [A37A9CEA] [2884893A]   CRC32   



Create a new paste based on this one


Comments: