[ create a new paste ] login | about

Link: http://codepad.org/RoWMpr0c    [ raw code | fork ]

Plain Text, pasted on May 11:
[CUETools log; Date: 5/11/2016 11:38:13 PM; Version: 2.1.5]
[CTDB TOCID: VVO1MR_BU34O02m1qs6VSpadSCM-] found.
Track | CTDB Status
  1   | (11/11) Accurately ripped
  2   | (11/11) Accurately ripped
  3   | (11/11) Accurately ripped
  4   | (11/11) Accurately ripped
  5   | (11/11) Accurately ripped
  6   | (11/11) Accurately ripped
  7   | (11/11) Accurately ripped
  8   | (11/11) Accurately ripped
  9   | (11/11) Accurately ripped
 10   | (11/11) Accurately ripped
 11   | (11/11) Accurately ripped
 12   | (11/11) Accurately ripped
 13   | (11/11) Accurately ripped
 14   | (10/11) Accurately ripped
[AccurateRip ID: 00293529-01b383d5-d511d00e] found.
Track   [  CRC   |   V2   ] Status
 01     [938757f5|83047d69] (12+07/24) Accurately ripped
 02     [efddcd39|e63eca9d] (12+07/24) Accurately ripped
 03     [cd6dbee8|2cf38e2e] (12+07/24) Accurately ripped
 04     [4a550136|119a6d97] (12+07/24) Accurately ripped
 05     [0d2a07d4|63f4dc62] (12+07/24) Accurately ripped
 06     [cc4f6c1b|9a9f21b1] (12+07/24) Accurately ripped
 07     [f7bc3559|54af110c] (12+07/24) Accurately ripped
 08     [f2c5ca36|a05e5cd8] (12+07/24) Accurately ripped
 09     [12cc7a48|256627ee] (12+07/24) Accurately ripped
 10     [c44b880e|7f4b90f4] (12+07/24) Accurately ripped
 11     [08d91fb9|b00d54bd] (12+07/24) Accurately ripped
 12     [77e1f9c8|291bbb21] (12+07/24) Accurately ripped
 13     [a99cff15|a31b09d3] (12+06/22) Accurately ripped
 14     [09a248bc|7789f5d4] (11+05/21) Accurately ripped
Offsetted by -664:
 01     [0b4815bd] (00/24) No match (V2 was not tested)
 02     [b21eeaa1] (00/24) No match (V2 was not tested)
 03     [53a99470] (00/24) No match (V2 was not tested)
 04     [e732c76e] (00/24) No match (V2 was not tested)
 05     [e0be72f4] (00/24) No match (V2 was not tested)
 06     [ac28dcb3] (00/24) No match (V2 was not tested)
 07     [9bb7f5c1] (00/24) No match (V2 was not tested)
 08     [f908a4c6] (00/24) No match (V2 was not tested)
 09     [75b99768] (00/24) No match (V2 was not tested)
 10     [1f53066e] (00/24) No match (V2 was not tested)
 11     [cf542081] (00/24) No match (V2 was not tested)
 12     [e949de58] (00/24) No match (V2 was not tested)
 13     [f401a41d] (00/22) No match (V2 was not tested)
 14     [c51653ec] (00/21) No match (V2 was not tested)

Track Peak [ CRC32  ] [W/O NULL] [  LOG   ]
 --  100.0 [538A8302] [2A050EDF]   CRC32   
 01   93.9 [7005FD14] [DA7A48B4]           
 02   97.5 [31D195CE] [3A04B4DF]           
 03   97.5 [3FCD43F6] [B16580AC]           
 04   90.8 [C5DDD416] [7990CD1B]           
 05  100.0 [363A12BE] [71EF9AC5]           
 06   95.4 [0FCC959B] [535CAA74]           
 07  100.0 [D2D87E91] [E8A83A4B]           
 08   91.5 [7CDA74AC] [951480B2]           
 09   95.8 [65D21850] [F0FFDE20]           
 10   88.1 [C04FD5F8] [935EBAF0]           
 11   94.3 [0AA707C9] [987F2019]           
 12   83.1 [71BF742F] [E09ACDD9]           
 13   89.1 [C963609A] [4D6DD9E4]           
 14   91.1 [C7741D10] [425ED1FE]           



Create a new paste based on this one


Comments: