[ create a new paste ] login | about

Link: http://codepad.org/RoWUuRmh    [ raw code | fork ]

Plain Text, pasted on Dec 30:
foobar2000 1.6 / Dynamic Range Meter 1.1.1
log date: 2020-12-30 19:52:05

--------------------------------------------------------------------------------
Analyzed: Ray Charles/Count Basie Orchestra / Ray Sings Basie Swings
--------------------------------------------------------------------------------

DR         Peak         RMS     Duration Track
--------------------------------------------------------------------------------
DR14      -1.15 dB   -20.98 dB      4:37 01-Oh, What a Beautiful Morning
DR12      -0.22 dB   -17.75 dB      2:58 02-Let the Good Times Roll
DR15      -0.50 dB   -20.92 dB      6:19 03-How Long Has This Been Going On?
DR13      -0.56 dB   -17.77 dB      4:06 04-Every Saturday Night
DR13      -0.39 dB   -16.79 dB      2:35 05-Busted
DR12      -6.41 dB   -22.94 dB      3:53 06-Crying Time
DR14      -0.40 dB   -19.79 dB      4:02 07-I Can't Stop Loving You
DR12      -2.40 dB   -20.83 dB      4:10 08-Come Live With Me
DR14      -0.38 dB   -19.27 dB      4:10 09-Feel So Bad
DR14      -0.01 dB   -20.07 dB      4:04 10-The Long and Winding Road
DR13      -0.39 dB   -19.02 dB      2:51 11-Look What They've Done To My Song
DR11      -7.57 dB   -23.40 dB      4:41 12-Georgia on My Mind
--------------------------------------------------------------------------------

Number of tracks:  12
Official DR value: DR13

Samplerate:        88200 Hz
Channels:          6
Bits per sample:   24
Bitrate:           6840 kbps
Codec:             FLAC
================================================================================




Create a new paste based on this one


Comments: