[ create a new paste ] login | about

Link: http://codepad.org/RsGSv6Kn    [ raw code | fork ]

Plain Text, pasted on Jul 19:
foobar2000 1.3.17 / Dynamic Range Meter 1.1.1
log date: 2018-07-18 14:33:50

--------------------------------------------------------------------------------
Analyzed: Public Image Limited / This Is What You Want... This Is What You Get
--------------------------------------------------------------------------------

DR         Peak         RMS     Duration Track
--------------------------------------------------------------------------------
DR12      -4.69 dB   -18.73 dB      5:15 01-Bad Life
DR11      -4.71 dB   -17.68 dB      4:12 02-This Is Not A Love Song
DR13      -3.55 dB   -18.39 dB      3:59 03-Solitaire
DR12      -4.92 dB   -19.07 dB      5:18 04-Tie Me To The Length Of That
DR12      -4.24 dB   -19.17 dB      5:18 05-The Pardon
DR11      -3.30 dB   -18.10 dB      4:18 06-Where Are You?
DR11      -3.89 dB   -17.25 dB      3:17 07-1981
DR12      -3.41 dB   -17.30 dB      4:51 08-The Order Of Death
--------------------------------------------------------------------------------

Number of tracks:  8
Official DR value: DR12

Samplerate:        2822400 Hz / PCM Samplerate: 176400 Hz
Channels:          2
Bits per sample:   1
Bitrate:           5645 kbps
Codec:             DSD64
================================================================================




Create a new paste based on this one


Comments: