[ create a new paste ] login | about

Link: http://codepad.org/RxqFqauK    [ raw code | fork ]

Plain Text, pasted on Sep 4:
2013 Instrumental Mixes

foobar2000 1.4.6 / Dynamic Range Meter 1.1.1
log date: 2019-09-03 21:38:53

--------------------------------------------------------------------------------
Analyzed: XTC / Nonsuch (2013 Remix)
--------------------------------------------------------------------------------

DR         Peak         RMS     Duration Track
--------------------------------------------------------------------------------
DR11      -0.40 dB   -13.34 dB      5:01 01-The Ballad Of Peter Pumpkinhead
DR11      -0.40 dB   -13.11 dB      4:00 02-My Bird Performs
DR12      -0.40 dB   -14.18 dB      2:54 03-Dear Madam Barnum
DR13      -0.40 dB   -17.26 dB      3:43 04-Humble Daisy
DR13      -0.40 dB   -15.70 dB      4:28 05-The Smartest Monkeys
DR11      -0.40 dB   -12.67 dB      3:37 06-The Disappointed
DR14      -0.40 dB   -15.45 dB      3:09 07-Holly Up On Poppy
DR11      -0.40 dB   -13.33 dB      4:05 08-Crocodile
DR13      -0.69 dB   -18.63 dB      3:51 09-Rook
DR11      -0.40 dB   -13.08 dB      3:30 10-Omnibus
DR12      -0.40 dB   -15.31 dB      3:47 11-That Wave
DR12      -0.40 dB   -14.83 dB      4:06 12-Then She Appeared
DR12      -0.39 dB   -13.73 dB      3:25 13-War Dance
DR13      -0.40 dB   -16.58 dB      3:50 14-Wrapped In Grey
DR13      -0.40 dB   -15.59 dB      3:58 15-The Ugly Underneath
DR11      -0.40 dB   -15.94 dB      2:54 16-Bungalow
DR9       -0.40 dB   -12.71 dB      5:09 17-Books Are Burning
DR11      -0.40 dB   -13.57 dB      3:30 18-Didn't Hurt A Bit
--------------------------------------------------------------------------------

Number of tracks:  18
Official DR value: DR12

Samplerate:        96000 Hz
Channels:          2
Bits per sample:   24
Bitrate:           2791 kbps
Codec:             FLAC
================================================================================

=========================================================================================================================================================

2013 Stereo Mixes

foobar2000 1.4.6 / Dynamic Range Meter 1.1.1
log date: 2019-09-03 21:39:21

--------------------------------------------------------------------------------
Analyzed: XTC / Nonsuch (2013 Remix)
--------------------------------------------------------------------------------

DR         Peak         RMS     Duration Track
--------------------------------------------------------------------------------
DR10      -0.40 dB   -11.97 dB      5:01 01-The Ballad Of Peter Pumpkinhead
DR9       -0.40 dB   -12.08 dB      4:00 02-My Bird Performs
DR11      -0.40 dB   -12.51 dB      2:54 03-Dear Madam Barnum
DR12      -0.40 dB   -15.52 dB      3:43 04-Humble Daisy
DR12      -0.39 dB   -14.61 dB      4:28 05-The Smartest Monkeys
DR10      -0.40 dB   -11.84 dB      3:37 06-The Disappointed
DR12      -0.40 dB   -13.34 dB      3:09 07-Holly Up On Poppy
DR10      -0.39 dB   -11.56 dB      4:05 08-Crocodile
DR12      -0.40 dB   -15.93 dB      3:51 09-Rook
DR9       -0.40 dB   -11.03 dB      3:30 10-Omnibus
DR11      -0.40 dB   -13.72 dB      3:47 11-That Wave
DR10      -0.39 dB   -13.17 dB      4:06 12-Then She Appeared
DR10      -0.40 dB   -12.40 dB      3:25 13-War Dance
DR12      -0.39 dB   -14.87 dB      3:50 14-Wrapped In Grey
DR11      -0.40 dB   -14.09 dB      3:58 15-The Ugly Underneath
DR10      -0.40 dB   -14.25 dB      2:54 16-Bungalow
DR9       -0.39 dB   -11.92 dB      5:09 17-Books Are Burning
DR10      -0.40 dB   -12.20 dB      3:30 18-Didn't Hurt A Bit
--------------------------------------------------------------------------------

Number of tracks:  18
Official DR value: DR10

Samplerate:        96000 Hz
Channels:          2
Bits per sample:   24
Bitrate:           2833 kbps
Codec:             FLAC
================================================================================

=========================================================================================================================================================

2013 Surround Mixes

foobar2000 1.4.6 / Dynamic Range Meter 1.1.1
log date: 2019-09-03 21:40:37

--------------------------------------------------------------------------------
Analyzed: XTC / Nonsuch (2013 Remix)
--------------------------------------------------------------------------------

DR         Peak         RMS     Duration Track
--------------------------------------------------------------------------------
DR13      -0.40 dB   -15.93 dB      5:01 01-The Ballad Of Peter Pumpkinhead
DR12      -0.40 dB   -15.61 dB      4:00 02-My Bird Performs
DR12      -0.40 dB   -16.03 dB      2:54 03-Dear Madam Barnum
DR13      -0.40 dB   -20.07 dB      3:43 04-Humble Daisy
DR15      -0.40 dB   -18.99 dB      4:28 05-The Smartest Monkeys
DR13      -0.40 dB   -17.05 dB      3:37 06-The Disappointed
DR15      -0.40 dB   -19.20 dB      3:09 07-Holly Up On Poppy
DR14      -0.39 dB   -16.44 dB      4:05 08-Crocodile
DR10      -2.04 dB   -20.56 dB      3:51 09-Rook
DR13      -0.40 dB   -16.56 dB      3:30 10-Omnibus
DR13      -0.40 dB   -17.73 dB      3:47 11-That Wave
DR13      -0.40 dB   -17.36 dB      4:06 12-Then She Appeared
DR14      -0.39 dB   -16.83 dB      3:25 13-War Dance
DR12      -0.40 dB   -17.24 dB      3:50 14-Wrapped In Grey
DR13      -0.40 dB   -17.85 dB      3:58 15-The Ugly Underneath
DR12      -0.40 dB   -19.21 dB      2:54 16-Bungalow
DR13      -0.40 dB   -17.46 dB      5:09 17-Books Are Burning
DR13      -0.40 dB   -16.05 dB      3:30 18-Didn't Hurt A Bit
--------------------------------------------------------------------------------

Number of tracks:  18
Official DR value: DR13

Samplerate:        96000 Hz
Channels:          6
Bits per sample:   24
Bitrate:           7040 kbps
Codec:             FLAC
================================================================================

=========================================================================================================================================================

Andy's Home Demos

foobar2000 1.4.6 / Dynamic Range Meter 1.1.1
log date: 2019-09-03 21:41:30

--------------------------------------------------------------------------------
Analyzed: XTC / Nonsuch (2013 Remix)
--------------------------------------------------------------------------------

DR         Peak         RMS     Duration Track
--------------------------------------------------------------------------------
DR8       -0.40 dB    -9.79 dB      3:18 01-Always Winter, Never Christmas
DR8       -0.40 dB   -10.41 dB      4:28 02-Books Are Burning
DR8       -0.90 dB   -10.57 dB      3:59 03-Goosey Goosey
DR7       -1.40 dB    -9.65 dB      3:39 04-Wrapped In Grey
DR8       -0.40 dB    -9.34 dB      3:47 05-That Wave
DR9       -0.40 dB   -10.59 dB      3:12 06-Goodbye Humanosaurus
DR9       -0.40 dB   -10.85 dB      2:41 07-Dear Madam Barnum
DR8       -0.40 dB    -9.85 dB      3:53 08-Crocodile
DR7       -0.40 dB    -8.66 dB      3:45 09-Difficult Age
DR9       -0.40 dB   -11.59 dB      3:17 10-The Ugly Underneath
DR9       -0.40 dB   -10.40 dB      3:06 11-Holly Up On Poppy
DR9       -0.40 dB   -10.33 dB      4:41 12-The Ballad Of Peter Pumpkinhead
DR7       -0.40 dB    -9.78 dB      3:02 13-Then She Appeared
DR8       -0.40 dB   -11.03 dB      3:25 14-It's Snowing Angels
DR8       -0.40 dB   -11.16 dB      3:41 15-Rook
DR9       -0.81 dB   -12.87 dB      3:19 16-Humble Daisy
DR8       -0.40 dB   -10.00 dB      2:50 17-Rip Van Reuben
DR8       -0.40 dB   -10.23 dB      3:32 18-I'm The Man Who Murdered Love
DR7       -0.90 dB    -9.61 dB      3:14 19-Omnibus
DR8       -1.90 dB   -11.12 dB      1:49 20-The Disappointed (First Reference Recording)
DR11      -1.90 dB   -13.32 dB      1:40 21-The Disappointed (Second Reference Recording)
DR9       -0.40 dB   -10.26 dB      3:16 22-The Disappointed
DR8       -0.40 dB    -9.40 dB      4:15 23-Wonder Annual
--------------------------------------------------------------------------------

Number of tracks:  23
Official DR value: DR8

Samplerate:        96000 Hz
Channels:          2
Bits per sample:   24
Bitrate:           3005 kbps
Codec:             FLAC
================================================================================

=========================================================================================================================================================

Colin's Work Tapes

foobar2000 1.4.6 / Dynamic Range Meter 1.1.1
log date: 2019-09-03 21:41:42

--------------------------------------------------------------------------------
Analyzed: XTC / Nonsuch (2013 Remix)
--------------------------------------------------------------------------------

DR         Peak         RMS     Duration Track
--------------------------------------------------------------------------------
DR10      -0.40 dB   -11.96 dB      3:29 01-My Bird Performs
DR8       -0.79 dB   -10.01 dB      2:50 02-Didn't Hurt A Bit
DR10      -0.40 dB   -12.55 dB      2:57 03-The Smartest Monkeys
DR11      -0.40 dB   -12.93 dB      2:34 04-Down A Peg
DR9       -1.03 dB   -13.15 dB      3:00 05-Bungalow
DR9       -0.48 dB   -11.44 dB      3:03 06-War Dance
DR10      -0.30 dB   -12.40 dB      4:00 07-Car Out Of Control
DR10      -0.36 dB   -12.08 dB      2:41 08-Where Did The Ordinary People Go
--------------------------------------------------------------------------------

Number of tracks:  8
Official DR value: DR10

Samplerate:        96000 Hz
Channels:          2
Bits per sample:   24
Bitrate:           2784 kbps
Codec:             FLAC
================================================================================

=========================================================================================================================================================

Original Stereo Mix

foobar2000 1.4.6 / Dynamic Range Meter 1.1.1
log date: 2019-09-03 21:42:10

--------------------------------------------------------------------------------
Analyzed: XTC / Nonsuch (2013 Remix)
--------------------------------------------------------------------------------

DR         Peak         RMS     Duration Track
--------------------------------------------------------------------------------
DR9       -0.30 dB   -10.55 dB      4:59 01-The Ballad Of Peter Pumpkinhead
DR8       -0.30 dB   -10.21 dB      3:51 02-My Bird Performs
DR8       -0.30 dB    -9.40 dB      2:48 03-Dear Madam Barnum
DR9       -0.30 dB   -13.07 dB      3:37 04-Humble Daisy
DR10      -0.30 dB   -12.74 dB      4:18 05-The Smartest Monkeys
DR8       -0.30 dB    -9.65 dB      3:23 06-The Disappointed
DR9       -0.30 dB   -10.69 dB      3:04 07-Holly Up On Poppy
DR8       -0.30 dB   -10.05 dB      3:57 08-Crocodile
DR9       -0.53 dB   -13.83 dB      3:47 09-Rook
DR7       -0.30 dB    -9.33 dB      3:21 10-Omnibus
DR8       -0.30 dB   -10.11 dB      3:33 11-That Wave
DR7       -0.30 dB    -9.84 dB      3:52 12-Then She Appeared
DR9       -0.30 dB   -10.84 dB      3:22 13-War Dance
DR9       -0.30 dB   -12.52 dB      3:46 14-Wrapped In Grey
DR8       -0.30 dB   -11.29 dB      3:51 15-The Ugly Underneath
DR8       -0.46 dB   -11.74 dB      2:49 16-Bungalow
DR8       -0.30 dB   -10.33 dB      4:53 17-Books Are Burning
--------------------------------------------------------------------------------

Number of tracks:  17
Official DR value: DR8

Samplerate:        96000 Hz
Channels:          2
Bits per sample:   24
Bitrate:           2981 kbps
Codec:             FLAC
================================================================================



Create a new paste based on this one


Comments: