[ create a new paste ] login | about

Link: http://codepad.org/RyuZfhiL    [ raw code | fork ]

Plain Text, pasted on Jul 23:
foobar2000 1.3.8 / Dynamic Range Meter 1.1.1
log date: 2015-11-02 11:32:15

--------------------------------------------------------------------------------
Analyzed: The Band / Northern Lights - Southern Cross (2014 SHM-SACD)
--------------------------------------------------------------------------------

DR         Peak         RMS     Duration Track
--------------------------------------------------------------------------------
DR14      -2.70 dB   -18.83 dB      5:59 01-Forbidden Fruit
DR15      -1.55 dB   -19.47 dB      4:15 02-Hobo Jungle
DR15      -0.10 dB   -17.94 dB      3:32 03-Ophelia
DR14      -2.29 dB   -19.71 dB      6:43 04-Acadian Driftwood
DR15      -0.10 dB   -17.83 dB      3:55 05-Ring Your Bell
DR14      -1.19 dB   -18.96 dB      6:34 06-It Makes No Difference
DR14      -2.88 dB   -19.17 dB      5:21 07-Jupiter Hollow
DR14      -0.54 dB   -17.47 dB      4:45 08-Rags And Bones
--------------------------------------------------------------------------------

Number of tracks:  8
Official DR value: DR14

Samplerate:        88200 Hz
Channels:          2
Bits per sample:   24
Bitrate:           2481 kbps
Codec:             FLAC
================================================================================




Create a new paste based on this one


Comments: