[ create a new paste ] login | about

Link: http://codepad.org/S1C8qTAn    [ raw code | fork ]

Plain Text, pasted on Feb 15:
foobar2000 1.3.17 / Dynamic Range Meter 1.1.1
log date: 2018-02-14 21:27:47

--------------------------------------------------------------------------------
Analyzed: Rush / Hemispheres [2013 Audio Fidelity SACD AFZ 162]
--------------------------------------------------------------------------------

DR         Peak         RMS     Duration Track
--------------------------------------------------------------------------------
DR13       0.00 dB   -15.81 dB     18:09 01-Cygnus X-1 Book II: Hemispheres
DR12      -0.41 dB   -15.17 dB      3:45 02-Circumstances
DR13      -0.30 dB   -16.97 dB      4:45 03-The Trees
DR13       0.00 dB   -16.57 dB      9:39 04-La Villa Strangiato (An Exercise In Self-Indulgence)
--------------------------------------------------------------------------------

Number of tracks:  4
Official DR value: DR13

Samplerate:        44100 Hz
Channels:          2
Bits per sample:   16
Bitrate:           870 kbps
Codec:             FLAC
================================================================================




Create a new paste based on this one


Comments: