[ create a new paste ] login | about

Link: http://codepad.org/S5HTz8Jz    [ raw code | fork ]

Plain Text, pasted on Aug 26:
EAC extraction logfile from 11. June 2007, 18:36 for CD
The Nat ''King'' Cole Trio / The Complete Capitol Recordings Of The Nat ''King'' Cole Trio - Disc 13

Used drive  : HL-DT-STDVD-ROM GDR8164B   Adapter: 0  ID: 1
Read mode   : Secure with NO C2, accurate stream, disable cache
Read offset correction : 102
Overread into Lead-In and Lead-Out : No

Used output format : C:\Programmi\Exact Audio Copy\flac.exe   (User Defined Encoder)
                     128 kBit/s
                     Additional command line options : -V -8 -T "artist=%a" -T "title=%t" -T "album=%g" -T "date=%y" -T "tracknumber=%n" -T "genre=%m" %s

Other options      : 
    Fill up missing offset samples with silence : Yes
    Delete leading and trailing silent blocks : No
    Native Win32 interface for Win NT & 2000


Track  1
     Filename D:\TORRENTS\Nat King Cole 3 - The Complete Capitol Recordings of the NKC Trio (1991) [FLAC] {Mosaic MD18 - 138}\CD 13\01 - Portait Of Jennie (F3).wav

     Pre-gap length  0:00:02.44

     Peak level 98.4 %
     Track quality 100.0 %
     Test CRC 8E01BB6B
     Copy CRC 8E01BB6B
     Copy OK

Track  2
     Filename D:\TORRENTS\Nat King Cole 3 - The Complete Capitol Recordings of the NKC Trio (1991) [FLAC] {Mosaic MD18 - 138}\CD 13\02 - Don't Cry, Cry Baby (F3).wav

     Pre-gap length  0:00:02.13

     Peak level 92.6 %
     Track quality 100.0 %
     Test CRC 733B9B1C
     Copy CRC 733B9B1C
     Copy OK

Track  3
     Filename D:\TORRENTS\Nat King Cole 3 - The Complete Capitol Recordings of the NKC Trio (1991) [FLAC] {Mosaic MD18 - 138}\CD 13\03 - An Old Piano Plays The Blues (F3).wav

     Pre-gap length  0:00:02.40

     Peak level 84.2 %
     Track quality 100.0 %
     Test CRC 7694B7F6
     Copy CRC 7694B7F6
     Copy OK

Track  4
     Filename D:\TORRENTS\Nat King Cole 3 - The Complete Capitol Recordings of the NKC Trio (1991) [FLAC] {Mosaic MD18 - 138}\CD 13\04 - How Lonely Can You Get  (F3).wav

     Pre-gap length  0:00:01.82

     Peak level 94.4 %
     Track quality 100.0 %
     Test CRC 2212EA87
     Copy CRC 2212EA87
     Copy OK

Track  5
     Filename D:\TORRENTS\Nat King Cole 3 - The Complete Capitol Recordings of the NKC Trio (1991) [FLAC] {Mosaic MD18 - 138}\CD 13\05 - Laugh! Cool Clown (G3).wav

     Pre-gap length  0:00:02.64

     Peak level 94.0 %
     Track quality 99.9 %
     Test CRC 1607A23D
     Copy CRC 1607A23D
     Copy OK

Track  6
     Filename D:\TORRENTS\Nat King Cole 3 - The Complete Capitol Recordings of the NKC Trio (1991) [FLAC] {Mosaic MD18 - 138}\CD 13\06 - Bop-Kick (G3).wav

     Pre-gap length  0:00:02.69

     Peak level 94.2 %
     Track quality 100.0 %
     Test CRC 1DE48119
     Copy CRC 1DE48119
     Copy OK

Track  7
     Filename D:\TORRENTS\Nat King Cole 3 - The Complete Capitol Recordings of the NKC Trio (1991) [FLAC] {Mosaic MD18 - 138}\CD 13\07 - For All We Know (G3).wav

     Pre-gap length  0:00:02.13

     Peak level 93.0 %
     Track quality 100.0 %
     Test CRC 36766391
     Copy CRC 36766391
     Copy OK

Track  8
     Filename D:\TORRENTS\Nat King Cole 3 - The Complete Capitol Recordings of the NKC Trio (1991) [FLAC] {Mosaic MD18 - 138}\CD 13\08 - Land Of Love (Come My Love And Live With Me) (H3).wav

     Pre-gap length  0:00:03.13

     Peak level 98.4 %
     Track quality 100.0 %
     Test CRC 309E413E
     Copy CRC 309E413E
     Copy OK

Track  9
     Filename D:\TORRENTS\Nat King Cole 3 - The Complete Capitol Recordings of the NKC Trio (1991) [FLAC] {Mosaic MD18 - 138}\CD 13\09 - Lush Life (H3).wav

     Pre-gap length  0:00:02.60

     Peak level 92.7 %
     Track quality 100.0 %
     Test CRC AA246558
     Copy CRC AA246558
     Copy OK

Track 10
     Filename D:\TORRENTS\Nat King Cole 3 - The Complete Capitol Recordings of the NKC Trio (1991) [FLAC] {Mosaic MD18 - 138}\CD 13\10 - Lillian (H3).wav

     Pre-gap length  0:00:02.56

     Peak level 98.4 %
     Track quality 100.0 %
     Test CRC 5C861106
     Copy CRC 5C861106
     Copy OK

Track 11
     Filename D:\TORRENTS\Nat King Cole 3 - The Complete Capitol Recordings of the NKC Trio (1991) [FLAC] {Mosaic MD18 - 138}\CD 13\11 - 'Tis Autumn (H3).wav

     Pre-gap length  0:00:02.66

     Peak level 93.6 %
     Track quality 99.9 %
     Test CRC 17DF9AE8
     Copy CRC 17DF9AE8
     Copy OK

Track 12
     Filename D:\TORRENTS\Nat King Cole 3 - The Complete Capitol Recordings of the NKC Trio (1991) [FLAC] {Mosaic MD18 - 138}\CD 13\12 - Yes Sir, That's My Baby (H3).wav

     Pre-gap length  0:00:03.00

     Peak level 84.5 %
     Track quality 99.9 %
     Test CRC 38345B62
     Copy CRC 38345B62
     Copy OK

Track 13
     Filename D:\TORRENTS\Nat King Cole 3 - The Complete Capitol Recordings of the NKC Trio (1991) [FLAC] {Mosaic MD18 - 138}\CD 13\13 - I Used To Love You (But It's All Over Now) (H3).wav

     Pre-gap length  0:00:02.20

     Peak level 98.4 %
     Track quality 100.0 %
     Test CRC 70B0F99A
     Copy CRC 70B0F99A
     Copy OK

Track 14
     Filename D:\TORRENTS\Nat King Cole 3 - The Complete Capitol Recordings of the NKC Trio (1991) [FLAC] {Mosaic MD18 - 138}\CD 13\14 - Etymology (The Language Of Love) (I3).wav

     Pre-gap length  0:00:02.33

     Peak level 98.4 %
     Track quality 100.0 %
     Test CRC DD6DC3CB
     Copy CRC DD6DC3CB
     Copy OK

Track 15
     Filename D:\TORRENTS\Nat King Cole 3 - The Complete Capitol Recordings of the NKC Trio (1991) [FLAC] {Mosaic MD18 - 138}\CD 13\15 - Peaches (I3).wav

     Pre-gap length  0:00:02.40

     Peak level 94.2 %
     Track quality 100.0 %
     Test CRC F6024BAD
     Copy CRC F6024BAD
     Copy OK

Track 16
     Filename D:\TORRENTS\Nat King Cole 3 - The Complete Capitol Recordings of the NKC Trio (1991) [FLAC] {Mosaic MD18 - 138}\CD 13\16 - Last But Not Least (I3).wav

     Pre-gap length  0:00:02.62

     Peak level 98.4 %
     Track quality 100.0 %
     Test CRC 8A6A5CE5
     Copy CRC 8A6A5CE5
     Copy OK

Track 17
     Filename D:\TORRENTS\Nat King Cole 3 - The Complete Capitol Recordings of the NKC Trio (1991) [FLAC] {Mosaic MD18 - 138}\CD 13\17 - I Wake Up Screaming, Dreaming Of You (I3).wav

     Pre-gap length  0:00:02.60

     Peak level 98.4 %
     Track quality 100.0 %
     Test CRC AA9D493B
     Copy CRC AA9D493B
     Copy OK

Track 18
     Filename D:\TORRENTS\Nat King Cole 3 - The Complete Capitol Recordings of the NKC Trio (1991) [FLAC] {Mosaic MD18 - 138}\CD 13\18 - It Was So Good While It Lasted (J3).wav

     Pre-gap length  0:00:02.29

     Peak level 97.1 %
     Track quality 99.9 %
     Test CRC 0312E73F
     Copy CRC 0312E73F
     Copy OK

Track 19
     Filename D:\TORRENTS\Nat King Cole 3 - The Complete Capitol Recordings of the NKC Trio (1991) [FLAC] {Mosaic MD18 - 138}\CD 13\19 - I Get Sentimental Over Nothing (J3).wav

     Pre-gap length  0:00:02.26

     Peak level 72.1 %
     Track quality 100.0 %
     Test CRC C2F8DB2C
     Copy CRC C2F8DB2C
     Copy OK

Track 20
     Filename D:\TORRENTS\Nat King Cole 3 - The Complete Capitol Recordings of the NKC Trio (1991) [FLAC] {Mosaic MD18 - 138}\CD 13\20 - Who Do You Know In Heaven (That Made You The Angel You Are ) (J3).wav

     Pre-gap length  0:00:02.10

     Peak level 94.0 %
     Track quality 100.0 %
     Test CRC DBE52A98
     Copy CRC DBE52A98
     Copy OK

No errors occured


End of status report



Create a new paste based on this one


Comments: