[ create a new paste ] login | about

Link: http://codepad.org/S7DbNZAX    [ raw code | fork ]

Plain Text, pasted on Jun 7:
Exact Audio Copy V1.0 beta 3 from 29. August 2011

EAC extraction logfile from 2. February 2014, 10:23

John Mellencamp / Human Wheels

Used drive  : PLEXTOR BD-R  PX-B950SA   Adapter: 6  ID: 0

Read mode               : Secure
Utilize accurate stream : Yes
Defeat audio cache      : Yes
Make use of C2 pointers : No

Read offset correction                      : 6
Overread into Lead-In and Lead-Out          : No
Fill up missing offset samples with silence : Yes
Delete leading and trailing silent blocks   : No
Null samples used in CRC calculations       : Yes
Used interface                              : Native Win32 interface for Win NT & 2000

Used output format : Internal WAV Routines
Sample format      : 44.100 Hz; 16 Bit; Stereo


TOC of the extracted CD

     Track |   Start  |  Length  | Start sector | End sector 
    ---------------------------------------------------------
        1  |  0:00.00 |  5:16.50 |         0    |    23749   
        2  |  5:16.50 |  4:11.42 |     23750    |    42616   
        3  |  9:28.17 |  5:34.13 |     42617    |    67679   
        4  | 15:02.30 |  3:53.25 |     67680    |    85179   
        5  | 18:55.55 |  5:15.52 |     85180    |   108856   
        6  | 24:11.32 |  3:55.60 |    108857    |   126541   
        7  | 28:07.17 |  4:51.70 |    126542    |   148436   
        8  | 32:59.12 |  5:08.53 |    148437    |   171589   
        9  | 38:07.65 |  3:43.17 |    171590    |   188331   
       10  | 41:51.07 |  3:37.43 |    188332    |   204649   
       11  | 45:28.50 |  3:56.34 |    204650    |   222383   


Range status and errors

Selected range

     Filename C:\John Mellencamp\2013 John Mellencamp 1978-2012 (19CD Box Set Mercury Records)\1993 Human Wheels\John Mellencamp - Human Wheels.wav

     Peak level 98.8 %
     Extraction speed 7.7 X
     Range quality 99.9 %
     Test CRC 1B454920
     Copy CRC 1B454920
     Copy OK

No errors occurred

 
AccurateRip summary
 
Track  1  accurately ripped (confidence 15)  [757DF7D0]  (AR v2)
Track  2  accurately ripped (confidence 15)  [B25D99D3]  (AR v2)
Track  3  accurately ripped (confidence 15)  [9384715D]  (AR v2)
Track  4  accurately ripped (confidence 15)  [333BB6F1]  (AR v2)
Track  5  accurately ripped (confidence 15)  [083E119E]  (AR v2)
Track  6  accurately ripped (confidence 15)  [670BA518]  (AR v2)
Track  7  accurately ripped (confidence 15)  [E54582A0]  (AR v2)
Track  8  accurately ripped (confidence 15)  [6C960FFF]  (AR v2)
Track  9  accurately ripped (confidence 15)  [C5A6830E]  (AR v2)
Track 10  accurately ripped (confidence 15)  [FA8378BA]  (AR v2)
Track 11  accurately ripped (confidence 15)  [BCF8529A]  (AR v2)
 
All tracks accurately ripped

End of status report

==== Log checksum 35069290C284E60FDC27B5021F4D6E381E10F322721A3291E5C2B3465B65400A ====



Create a new paste based on this one


Comments: