[ create a new paste ] login | about

Link: http://codepad.org/S7OZHX9I    [ raw code | fork ]

Plain Text, pasted on Feb 15:
1
2
3
4
5
6
7
8
9
10
11
12
13
14
15
16
17
18
19
20
21
[CUETools log; Date: 9/2/2015 6:52:54 AM; Version: 2.1.5]
[CTDB TOCID: QVkjYA7vTSosSSu7B2.SAcknu7I-] found.
Track | CTDB Status
  1   | (17/18) Accurately ripped
  2   | (17/18) Accurately ripped
  3   | (17/18) Accurately ripped
  4   | (17/18) Accurately ripped
[AccurateRip ID: 000711ce-001ac682-1d088104] found.
Track   [  CRC   |   V2   ] Status
 01     [036b175e|43c235d1] (00+41/41) Accurately ripped
 02     [ea1bf4d4|b7dd9111] (00+41/41) Accurately ripped
 03     [cab37874|8cb42e09] (00+41/41) Accurately ripped
 04     [2e8c75df|3ec294ee] (00+41/41) Accurately ripped

Track Peak [ CRC32  ] [W/O NULL] [  LOG   ]
 --  100.0 [2CB19530] [933FA37B]   CRC32   
 01  100.0 [B0C78B11] [0E82BDF4]           
 02   95.4 [EAE00E0B] [E0813ECB]           
 03   96.5 [06855F62] [A9C9F9A9]           
 04  100.0 [56A3362C] [74F43D51]           



Create a new paste based on this one


Comments: