[ create a new paste ] login | about

Link: http://codepad.org/S9pyppYN    [ raw code | fork ]

Plain Text, pasted on Apr 25:
foobar2000 1.2.8 / Dynamic Range Meter 1.1.1
log date: 2013-09-06 12:09:55

--------------------------------------------------------------------------------
Analyzed: The Byrds / The Notorious Byrd Brothers (2006 MFSL Hybrid SACD)
--------------------------------------------------------------------------------

DR         Peak         RMS     Duration Track
--------------------------------------------------------------------------------
DR10      -0.54 dB   -12.40 dB      2:19 01-Artificial Energy
DR10      -0.44 dB   -13.69 dB      3:23 02-Goin' Back
DR9       -0.51 dB   -12.68 dB      2:16 03-Natural Harmony
DR12      -0.12 dB   -14.71 dB      2:35 04-Draft Morning
DR10      -0.33 dB   -12.12 dB      2:03 05-Wasn't Born To Follow
DR10      -0.19 dB   -12.99 dB      2:41 06-Get To You
DR9       -1.31 dB   -11.90 dB      3:22 07-Change Is Now
DR11      -0.29 dB   -13.86 dB      1:50 08-Old John Robertson
DR10      -0.19 dB   -12.58 dB      2:06 09-Tribal Gathering
DR10      -0.25 dB   -13.29 dB      2:03 10-Dolphin's Smile
DR9       -0.01 dB   -11.87 dB      4:05 11-Space Odyssey
DR12      -1.47 dB   -15.54 dB      3:27 12-Moog Raga (Instrumental)
DR12      -0.44 dB   -14.09 dB      2:11 13-Bound To Fall (Instrumental)
DR9       -1.54 dB   -13.71 dB      3:32 14-Triad
DR12      -0.66 dB   -14.48 dB      3:58 15-Goin' Back (Version One)
DR11      -0.38 dB   -13.28 dB      2:58 16-Draft Morning (Alternate Ending)
DR12      -0.49 dB   -17.73 dB     13:44 17-Universal Mind Decoder (Instrumental)
--------------------------------------------------------------------------------

Number of tracks:  17
Official DR value: DR10

Samplerate:        88200 Hz
Channels:          2
Bits per sample:   24
Bitrate:           2215 kbps
Codec:             FLAC
================================================================================




Create a new paste based on this one


Comments: