[ create a new paste ] login | about

Link: http://codepad.org/SBMPS3gd    [ raw code | fork ]

Plain Text, pasted on Aug 30:
[CUETools log; Date: 8/29/2019 10:38:18 PM; Version: 2.1.5]
[CTDB TOCID: lj4DwVrUbOcBxjar1cu_ENDySZ4-] found.
Track | CTDB Status
  1   | (8/8) Accurately ripped
  2   | (8/8) Accurately ripped
  3   | (8/8) Accurately ripped
  4   | (8/8) Accurately ripped
  5   | (8/8) Accurately ripped
  6   | (8/8) Accurately ripped
  7   | (8/8) Accurately ripped
  8   | (8/8) Accurately ripped
  9   | (8/8) Accurately ripped
[AccurateRip ID: 000fd15f-00733107-760a4609] found.
Track   [  CRC   |   V2   ] Status
 01     [69d788ed|264a8bde] (0+0/2) No match
 02     [112cf1c3|f2228862] (0+0/2) No match
 03     [0f9cb19b|6ab4b889] (0+0/2) No match
 04     [8c92ecc1|c9bf8252] (0+0/2) No match
 05     [dce84c6f|248527c9] (0+0/2) No match
 06     [e0d9f7c3|2313174b] (0+0/2) No match
 07     [b9230987|4b1a4c5a] (0+0/2) No match
 08     [69ee019a|d3a0e8bc] (0+0/2) No match
 09     [8ece8a0e|c08c8672] (0+0/2) No match

Track Peak [ CRC32  ] [W/O NULL] [  LOG   ]
 --   99.4 [994935EC] [D719B84F]   CRC32   
 01   99.4 [EC2EE021] [9177570E]           
 02   99.4 [C9B69CE1] [7D47396C]           
 03   99.4 [2B513B3E] [503B7142]           
 04   99.4 [F30BBDC9] [3E5F0E8F]           
 05   99.4 [8B789C31] [55C0078C]           
 06   99.4 [03BCC35D] [39324255]           
 07   99.4 [757BB4EF] [AA6E6233]           
 08   96.1 [043BA484] [6B86F2C6]           
 09   99.4 [E64D41A6] [EB056539]           



Create a new paste based on this one


Comments: