[ create a new paste ] login | about

Link: http://codepad.org/SDOIp4cf    [ raw code | fork ]

Plain Text, pasted on May 29:
foobar2000 1.4.4 / Dynamic Range Meter 1.1.1
log date: 2019-05-28 19:34:29

--------------------------------------------------------------------------------
Analyzed: The Rolling Stones / Let It Bleed
--------------------------------------------------------------------------------

DR         Peak         RMS     Duration Track
--------------------------------------------------------------------------------
DR11      -1.43 dB   -14.47 dB      4:35 01-Gimme Shelter
DR12      -3.20 dB   -18.17 dB      4:23 02-Love In Vain
DR13      -0.15 dB   -16.12 dB      3:11 03-Country Honk
DR13      -0.05 dB   -15.00 dB      3:37 04-Live With Me
DR11      -0.92 dB   -13.94 dB      5:30 05-Let It Bleed
DR12      -1.28 dB   -15.94 dB      6:57 06-Midnight Rambler
DR12      -1.43 dB   -17.76 dB      2:55 07-You Got The Silver
DR12      -0.46 dB   -14.54 dB      4:15 08-Monkey Man
DR11      -0.09 dB   -14.84 dB      7:28 09-You Can't Always Get What You Want
--------------------------------------------------------------------------------

Number of tracks:  9
Official DR value: DR12

Samplerate:        96000 Hz
Channels:          2
Bits per sample:   24
Bitrate:           3075 kbps
Codec:             FLAC
================================================================================




Create a new paste based on this one


Comments: