[ create a new paste ] login | about

Link: http://codepad.org/SDSDqKN9    [ raw code | fork ]

Plain Text, pasted on Apr 30:
Exact Audio Copy V0.99 prebeta 4 from 23. January 2008

EAC extraction logfile from 19. September 2009, 6:31

Pretenders / The Pretenders [Audio Fidelity Gold Disc]

Used drive  : HL-DT-STCD-RW GCE-8481B   Adapter: 1  ID: 1

Read mode               : Secure
Utilize accurate stream : Yes
Defeat audio cache      : Yes
Make use of C2 pointers : No

Read offset correction                      : 6
Overread into Lead-In and Lead-Out          : No
Fill up missing offset samples with silence : Yes
Delete leading and trailing silent blocks   : No
Null samples used in CRC calculations       : Yes
Used interface                              : Native Win32 interface for Win NT & 2000
Gap handling                                : Appended to previous track

Used output format              : User Defined Encoder
Selected bitrate                : 32 kBit/s
Quality                         : High
Add ID3 tag                     : No
Command line compressor         : C:\Program Files\Exact Audio Copy 0.99pb4\Flac\flac.exe
Additional command line options : -8 -V -T "ARTIST=%a" -T "TITLE=%t" -T "ALBUM=%g" -T "DATE=%y" -T "TRACKNUMBER=%n" -T "GENRE=%m" -T "COMMENT=EAC (Secure w / Accurate Rip)" %s


TOC of the extracted CD

     Track |   Start  |  Length  | Start sector | End sector 
    ---------------------------------------------------------
        1  |  0:00.00 |  3:37.14 |         0    |    16288   
        2  |  3:37.14 |  2:29.01 |     16289    |    27464   
        3  |  6:06.15 |  4:27.54 |     27465    |    47543   
        4  | 10:33.69 |  2:59.35 |     47544    |    61003   
        5  | 13:33.29 |  3:26.42 |     61004    |    76495   
        6  | 16:59.71 |  3:37.47 |     76496    |    92817   
        7  | 20:37.43 |  2:47.01 |     92818    |   105343   
        8  | 23:24.44 |  3:08.72 |    105344    |   119515   
        9  | 26:33.41 |  6:26.29 |    119516    |   148494   
       10  | 32:59.70 |  3:08.04 |    148495    |   162598   
       11  | 36:07.74 |  5:53.33 |    162599    |   189106   
       12  | 42:01.32 |  5:26.43 |    189107    |   213599   


Track  1

     Filename C:\Ripped\NEW\01 - Precious.wav

     Pre-gap length  0:00:02.00

     Peak level 98.8 %
     Track quality 100.0 %
     Test CRC 3673C487
     Copy CRC 3673C487
     Track not present in AccurateRip database
     Copy OK

Track  2

     Filename C:\Ripped\NEW\02 - The Phone Call.wav

     Peak level 96.8 %
     Track quality 100.0 %
     Test CRC 74F0B463
     Copy CRC 74F0B463
     Track not present in AccurateRip database
     Copy OK

Track  3

     Filename C:\Ripped\NEW\03 - Up The Neck.wav

     Peak level 98.4 %
     Track quality 100.0 %
     Test CRC C34CDE46
     Copy CRC C34CDE46
     Track not present in AccurateRip database
     Copy OK

Track  4

     Filename C:\Ripped\NEW\04 - Tattooed Love Boys.wav

     Peak level 98.8 %
     Track quality 100.0 %
     Test CRC C0600060
     Copy CRC C0600060
     Track not present in AccurateRip database
     Copy OK

Track  5

     Filename C:\Ripped\NEW\05 - Space Invader.wav

     Peak level 98.8 %
     Track quality 99.9 %
     Test CRC 57CD744A
     Copy CRC 57CD744A
     Track not present in AccurateRip database
     Copy OK

Track  6

     Filename C:\Ripped\NEW\06 - The Wait.wav

     Peak level 95.1 %
     Track quality 100.0 %
     Test CRC E3939559
     Copy CRC E3939559
     Track not present in AccurateRip database
     Copy OK

Track  7

     Filename C:\Ripped\NEW\07 - Stop Your Sobbing.wav

     Peak level 98.8 %
     Track quality 99.9 %
     Test CRC B21E49F5
     Copy CRC B21E49F5
     Track not present in AccurateRip database
     Copy OK

Track  8

     Filename C:\Ripped\NEW\08 - Kid.wav

     Peak level 98.8 %
     Track quality 100.0 %
     Test CRC 6198DF3E
     Copy CRC 6198DF3E
     Track not present in AccurateRip database
     Copy OK

Track  9

     Filename C:\Ripped\NEW\09 - Private Life.wav

     Peak level 98.8 %
     Track quality 100.0 %
     Test CRC E059E619
     Copy CRC E059E619
     Track not present in AccurateRip database
     Copy OK

Track 10

     Filename C:\Ripped\NEW\10 - Brass In Pocket.wav

     Peak level 98.8 %
     Track quality 100.0 %
     Test CRC 4FAE6AC1
     Copy CRC 4FAE6AC1
     Track not present in AccurateRip database
     Copy OK

Track 11

     Filename C:\Ripped\NEW\11 - Lovers Of Today.wav

     Peak level 91.0 %
     Track quality 100.0 %
     Test CRC 2F4386A9
     Copy CRC 2F4386A9
     Track not present in AccurateRip database
     Copy OK

Track 12

     Filename C:\Ripped\NEW\12 - Mystery Achievement.wav

     Pre-gap length  0:00:01.38

     Peak level 97.3 %
     Track quality 100.0 %
     Test CRC 68F4B59C
     Copy CRC 68F4B59C
     Track not present in AccurateRip database
     Copy OK


None of the tracks are present in the AccurateRip database

No errors occurred

End of status report



Create a new paste based on this one


Comments: