[ create a new paste ] login | about

Link: http://codepad.org/SDpazKeC    [ raw code | fork ]

Plain Text, pasted on Jul 3:
foobar2000 1.4.4 / Dynamic Range Meter 1.1.1
log date: 2019-07-02 21:36:29

--------------------------------------------------------------------------------
Analyzed: Bill Evans Trio / Portrait In Jazz [2019 Mobile Fidelity One-Step 2x 180g 45RPM Vinyl]
--------------------------------------------------------------------------------

DR         Peak         RMS     Duration Track
--------------------------------------------------------------------------------
DR11      -1.09 dB   -16.49 dB      3:24 01-Come Rain Or Shine
DR10      -2.67 dB   -15.79 dB      6:00 02-Autumn Leaves
DR11      -1.84 dB   -16.45 dB      4:34 03-Witchcraft
DR12      -4.30 dB   -21.21 dB      5:00 04-When I Fall In Love
DR12      -0.53 dB   -17.07 dB      3:15 05-Peri's Scope
DR12      -0.52 dB   -15.80 dB      4:36 06-What Is This Thing Called Love
DR12      -0.40 dB   -17.90 dB      5:07 07-Spring Is Here
DR12      -2.81 dB   -17.16 dB      4:55 08-Some Day My Prince Will Come
DR13      -1.40 dB   -18.99 dB      5:28 09-Blue In Green
--------------------------------------------------------------------------------

Number of tracks:  9
Official DR value: DR12

Samplerate:        44100 Hz
Channels:          2
Bits per sample:   16
Bitrate:           720 kbps
Codec:             FLAC
================================================================================




Create a new paste based on this one


Comments: