[ create a new paste ] login | about

Link: http://codepad.org/SEDGkRds    [ raw code | fork ]

Plain Text, pasted on Dec 11:
Exact Audio Copy V0.99 prebeta 4 from 23. January 2008

Отчёт EAC об извлечении, выполненном 2. августа 2011, 4:08

Various / Rock-A-Billy CD05 - Honky Tonk Man

Дисковод: Optiarc DVD RW AD-7173A   Adapter: 0  ID: 1

Режим чтения                 : Достоверность
Использование точного потока : Да
Отключение кэша аудио        : Да
Использование указателей C2  : Нет

Коррекция смещения при чтении                     : 48
Способность читать области Lead-in и Lead-out     : Нет
Заполнение пропущенных сэмплов тишиной            : Да
Удаление блоков с тишиной в начале и конце        : Нет
При вычислениях CRC использовались нулевые сэмплы : Да
Интерфейс                                         : Встроенный Win32-интерфейс для Win NT/2000

Выходной формат : Внутренние WAV-операции
Формат сэмплов  : 44.100 Гц; 16 бит; стерео

TOC извлечённого CD

     Трек |   Старт  | Длительность | Начальный сектор | Конечный сектор
    ---------------------------------------------------------------------
       1  |  0:00.00 |    2:03.32   |           0      |       9256
       2  |  2:03.32 |    1:53.64   |        9257      |      17795
       3  |  3:57.21 |    2:25.54   |       17796      |      28724
       4  |  6:23.00 |    1:40.54   |       28725      |      36278
       5  |  8:03.54 |    2:28.03   |       36279      |      47381
       6  | 10:31.57 |    2:08.23   |       47382      |      57004
       7  | 12:40.05 |    2:10.59   |       57005      |      66813
       8  | 14:50.64 |    1:50.70   |       66814      |      75133
       9  | 16:41.59 |    1:53.61   |       75134      |      83669
      10  | 18:35.45 |    2:12.43   |       83670      |      93612
      11  | 20:48.13 |    2:12.74   |       93613      |     103586
      12  | 23:01.12 |    2:16.57   |      103587      |     113843
      13  | 25:17.69 |    1:36.54   |      113844      |     121097
      14  | 26:54.48 |    1:52.45   |      121098      |     129542
      15  | 28:47.18 |    2:25.33   |      129543      |     140450
      16  | 31:12.51 |    2:34.08   |      140451      |     152008
      17  | 33:46.59 |    2:08.35   |      152009      |     161643
      18  | 35:55.19 |    2:37.08   |      161644      |     173426
      19  | 38:32.27 |    2:02.60   |      173427      |     182636
      20  | 40:35.12 |    1:59.06   |      182637      |     191567

Характеристики диапазона извлечения и сообщения об ошибках

Выбранный диапазон

     Имя файла D:\КОЛЛЕКЦИЯ 12\ROCK-A-BILLY\5\Various - Rock-A-Billy CD05 - Honky Tonk Man.wav

     Пиковый уровень 100.0 %
     Качество диапазона 99.9 %
     CRC копии DC816094
     Копирование... OK

Ошибок не произошло

AccurateRip: сводка

Трек  1  нет в базе данных
Трек  2  нет в базе данных
Трек  3  нет в базе данных
Трек  4  нет в базе данных
Трек  5  нет в базе данных
Трек  6  нет в базе данных
Трек  7  нет в базе данных
Трек  8  нет в базе данных
Трек  9  нет в базе данных
Трек 10  нет в базе данных
Трек 11  нет в базе данных
Трек 12  нет в базе данных
Трек 13  нет в базе данных
Трек 14  нет в базе данных
Трек 15  нет в базе данных
Трек 16  нет в базе данных
Трек 17  нет в базе данных
Трек 18  нет в базе данных
Трек 19  нет в базе данных
Трек 20  нет в базе данных

Ни одного трека нет в базе AccurateRip

Конец отчёта



Create a new paste based on this one


Comments: