[ create a new paste ] login | about

Link: http://codepad.org/SHdGPeDX    [ raw code | fork ]

Plain Text, pasted on Nov 20:
Exact Audio Copy V1.3 from 2. September 2016

EAC extraction logfile from 11. November 2018, 15:16

The Kinks / The Kinks Are The Village Green Preservation Society CD2 Mono

Used drive  : PLEXTOR BD-R  PX-B950SA   Adapter: 1  ID: 1

Read mode               : Secure
Utilize accurate stream : Yes
Defeat audio cache      : Yes
Make use of C2 pointers : No

Read offset correction                      : 6
Overread into Lead-In and Lead-Out          : No
Fill up missing offset samples with silence : Yes
Delete leading and trailing silent blocks   : No
Null samples used in CRC calculations       : Yes
Used interface                              : Native Win32 interface for Win NT & 2000

Used output format : Internal WAV Routines
Sample format      : 44.100 Hz; 16 Bit; Stereo


TOC of the extracted CD

     Track |   Start  |  Length  | Start sector | End sector 
    ---------------------------------------------------------
        1  |  0:00.00 |  2:55.19 |         0    |    13143   
        2  |  2:55.19 |  2:30.74 |     13144    |    24467   
        3  |  5:26.18 |  2:38.30 |     24468    |    36347   
        4  |  8:04.48 |  2:33.49 |     36348    |    47871   
        5  | 10:38.22 |  4:13.25 |     47872    |    66871   
        6  | 14:51.47 |  2:53.33 |     66872    |    79879   
        7  | 17:45.05 |  2:27.61 |     79880    |    90965   
        8  | 20:12.66 |  3:03.36 |     90966    |   104726   
        9  | 23:16.27 |  2:12.41 |    104727    |   114667   
       10  | 25:28.68 |  2:29.59 |    114668    |   125901   
       11  | 27:58.52 |  2:41.44 |    125902    |   138020   
       12  | 30:40.21 |  2:27.37 |    138021    |   149082   
       13  | 33:07.58 |  2:45.66 |    149083    |   161523   
       14  | 35:53.49 |  2:22.68 |    161524    |   172241   
       15  | 38:16.42 |  2:21.57 |    172242    |   182873   
       16  | 40:38.24 |  2:55.17 |    182874    |   196015   
       17  | 43:33.41 |  3:09.57 |    196016    |   210247   
       18  | 46:43.23 |  2:25.44 |    210248    |   221166   
       19  | 49:08.67 |  2:50.65 |    221167    |   233981   
       20  | 51:59.57 |  2:51.40 |    233982    |   246846   
       21  | 54:51.22 |  3:19.29 |    246847    |   261800   
       22  | 58:10.51 |  2:39.17 |    261801    |   273742   
       23  | 60:49.68 |  2:12.25 |    273743    |   283667   
       24  | 63:02.18 |  2:57.27 |    283668    |   296969   
       25  | 65:59.45 |  1:45.58 |    296970    |   304902   
       26  | 67:45.28 |  2:47.39 |    304903    |   317466   
       27  | 70:32.67 |  3:10.10 |    317467    |   331726   
       28  | 73:43.02 |  1:58.19 |    331727    |   340595   
       29  | 75:41.21 |  3:18.72 |    340596    |   355517   


Range status and errors

Selected range

     Filename C:\The Kinks\1968 The Village Green Preservation Society (11-Disc Box Set BMG 2018)\CD2 Mono\The Kinks - The Village Green CD2 Mono.wav

     Peak level 100.0 %
     Extraction speed 8.7 X
     Range quality 100.0 %
     Test CRC 5ED6D862
     Copy CRC 5ED6D862
     Copy OK

No errors occurred

 
AccurateRip summary
 
Track  1  not present in database
Track  2  not present in database
Track  3  not present in database
Track  4  not present in database
Track  5  not present in database
Track  6  not present in database
Track  7  not present in database
Track  8  not present in database
Track  9  not present in database
Track 10  not present in database
Track 11  not present in database
Track 12  not present in database
Track 13  not present in database
Track 14  not present in database
Track 15  not present in database
Track 16  not present in database
Track 17  not present in database
Track 18  not present in database
Track 19  not present in database
Track 20  not present in database
Track 21  not present in database
Track 22  not present in database
Track 23  not present in database
Track 24  not present in database
Track 25  not present in database
Track 26  not present in database
Track 27  not present in database
Track 28  not present in database
Track 29  not present in database
 
None of the tracks are present in the AccurateRip database

End of status report

---- CUETools DB Plugin V2.1.6

[CTDB TOCID: futYjfm0lM3814Op7uLErSk9lVc-] found
Submit result: futYjfm0lM3814Op7uLErSk9lVc- has been confirmed
Track | CTDB Status
  1   | (15/15) Accurately ripped
  2   | (15/15) Accurately ripped
  3   | (15/15) Accurately ripped
  4   | (15/15) Accurately ripped
  5   | (15/15) Accurately ripped
  6   | (15/15) Accurately ripped
  7   | (15/15) Accurately ripped
  8   | (15/15) Accurately ripped
  9   | (15/15) Accurately ripped
 10   | (15/15) Accurately ripped
 11   | (15/15) Accurately ripped
 12   | (15/15) Accurately ripped
 13   | (15/15) Accurately ripped
 14   | (15/15) Accurately ripped
 15   | (15/15) Accurately ripped
 16   | (15/15) Accurately ripped
 17   | (15/15) Accurately ripped
 18   | (15/15) Accurately ripped
 19   | (15/15) Accurately ripped
 20   | (15/15) Accurately ripped
 21   | (15/15) Accurately ripped
 22   | (15/15) Accurately ripped
 23   | (15/15) Accurately ripped
 24   | (15/15) Accurately ripped
 25   | (15/15) Accurately ripped
 26   | (15/15) Accurately ripped
 27   | (15/15) Accurately ripped
 28   | (15/15) Accurately ripped
 29   | (15/15) Accurately ripped


==== Log checksum F57BC433338D120DFDD015AC2D5190853528EF27D1654FDB4578F708988F5215 ====



Create a new paste based on this one


Comments: